↑↓torrent.by
Поиск
Логин: Регистрация
Пароль: Восстановить пароль

Душа / Soul (2020) WEB-DLRip-AVC | P | HDRezka Studio

Скачать dusha-soul-2020-web-dlrip-avc-p-hdrezka-studio.torrent
U Магнитная ссылка Размер: 745.31 MB Раздают: 44 Качают: 7 Добавлен: 2021-01-13 06:45:57
Душа / Soul (2020) WEB-DLRip-AVC | P | HDRezka Studio

Название: Душа
Оригинальное название: Soul
Год выхода: 2020
Жанр:  мультфильм, фэнтези, комедия, приключения, семейный, музыка
Режиссер: Пит Доктер, Кемп Пауэрс
В ролях: Джейми Фокс, Тина Фей, Филисия Рашад, Давид Диггс, Анджела Бассетт, Грэм Нортон, Рэйчел Хаус, Алиси Брага, Ричард Айоади, Доннел Роулингс

О фильме:
Школьный учитель музыки Джо Гарднер случайно попадает в мир, где зарождаются человеческие увлечения, мечты и интересы, и там он знакомится с молодой душой по имени 22.

Страна: США
Продолжительность: 01:40:31
Перевод: Профессиональный (многоголосый, закадровый) | HDRezka Studio
Субтитры: Русские (Forced, Full(FOCS)), украинские (Full), английские (SDH)
► Без Рекламы!

Файл
Формат: Matroska
Качество: WEB-DLRip-AVC
Видео: 726x304 at 23.976 fps, x264@L4.1, ~955 kbps, 0.180 bpp
Аудио: AAC, 2 ch, ~76 kbps - | Русский | -
Формат субтитров: softsub (SRT)

***Релиз от: -=DoMiNo=-


[+] M/I
x264 [info]: profile High, level 4.1, 4:2:0, 8-bit
x264 [info]: frame I:1287  Avg QP:14.13  size: 41247
x264 [info]: frame P:32577 Avg QP:17.80  size: 10987
x264 [info]: frame B:110749 Avg QP:20.08  size:  2792
x264 [info]: consecutive B-frames:  2.5%  2.6%  6.2% 33.1% 17.2% 22.8%  7.4%  5.1%  1.0%  0.7%  0.3%  0.8%  0.2%

General
Format                      : Matroska
Format version              : Version 4
File size                   : 745 MiB
Duration                    : 1 h 40 min
Overall bit rate            : 1 037 kb/s
Movie name                  : Душа.(2020).WEB-DLRip-AVC.[-=DoMiNo=-]
Encoded date                : UTC 2021-01-12 09:53:25
Writing application         : mkvmerge v52.0.0 ('Secret For The Mad') 64-bit
Writing library             : libebml v1.4.1 + libmatroska v1.6.2
Cover                       : Yes
Attachments                 : Cover.jpg / Cover 2.jpg

Video
ID                          : 1
Format                      : AVC
Format/Info                 : Advanced Video Codec
Format profile              : High@L4.1
Format settings             : CABAC / 15 Ref Frames
Format settings, CABAC      : Yes
Format settings, Reference  : 15 frames
Codec ID                    : V_MPEG4/ISO/AVC
Duration                    : 1 h 40 min
Bit rate                    : 955 kb/s
Width                       : 726 pixels
Height                      : 304 pixels
Display aspect ratio        : 2.40:1
Frame rate mode             : Constant
Frame rate                  : 23.976 (24000/1001) FPS
Color space                 : YUV
Chroma subsampling          : 4:2:0
Bit depth                   : 8 bits
Scan type                   : Progressive
Bits/(Pixel*Frame)          : 0.180
Stream size                 : 687 MiB (92%)
Title                       : -=DoMiNo=-
Writing library             : x264 core 161 r3027 4121277
Encoding settings           : cabac=1 / ref=15 / deblock=1:-2:-1 / analyse=0x3:0x133 / me=umh / subme=10 / psy=1 / psy_rd=1.00:0.15 / mixed_ref=1 / me_range=32 / chroma_me=1 / trellis=2 / 8x8dct=1 / cqm=0 / deadzone=21,11 / fast_pskip=0 / chroma_qp_offset=-3 / threads=6 / lookahead_threads=1 / sliced_threads=0 / nr=0 / decimate=0 / interlaced=0 / bluray_compat=0 / constrained_intra=0 / bframes=12 / b_pyramid=2 / b_adapt=2 / b_bias=0 / direct=3 / weightb=1 / open_gop=0 / weightp=2 / keyint=250 / keyint_min=23 / scenecut=40 / intra_refresh=0 / rc_lookahead=60 / rc=2pass / mbtree=0 / bitrate=955 / ratetol=1.0 / qcomp=0.65 / qpmin=0 / qpmax=69 / qpstep=4 / cplxblur=20.0 / qblur=0.5 / vbv_maxrate=50000 / vbv_bufsize=62500 / nal_hrd=none / filler=0 / ip_ratio=1.40 / pb_ratio=1.30 / aq=2:1.00
Language                    : English
Default                     : Yes
Forced                      : No
Color range                 : Limited
Color primaries             : BT.709
Transfer characteristics    : BT.709
Matrix coefficients         : BT.709

Audio
ID                          : 2
Format                      : AAC LC SBR
Format/Info                 : Advanced Audio Codec Low Complexity with Spectral Band Replication
Commercial name             : HE-AAC
Format settings             : Explicit
Codec ID                    : A_AAC-2
Duration                    : 1 h 40 min
Bit rate                    : 78.7 kb/s
Channel(s)                  : 2 channels
Channel layout              : L R
Sampling rate               : 48.0 kHz
Frame rate                  : 23.438 FPS (2048 SPF)
Compression mode            : Lossy
Stream size                 : 56.6 MiB (8%)
Title                       : MVO_[HDR]
Language                    : Russian
Default                     : Yes
Forced                      : No

Text #1
ID                          : 3
Format                      : UTF-8
Codec ID                    : S_TEXT/UTF8
Codec ID/Info               : UTF-8 Plain Text
Duration                    : 1 h 9 min
Bit rate                    : 1 b/s
Count of elements           : 22
Stream size                 : 1 016 Bytes (0%)
Title                       : Forced
Language                    : Russian
Default                     : Yes
Forced                      : No

Text #2
ID                          : 4
Format                      : UTF-8
Codec ID                    : S_TEXT/UTF8
Codec ID/Info               : UTF-8 Plain Text
Duration                    : 1 h 40 min
Bit rate                    : 110 b/s
Count of elements           : 1546
Stream size                 : 81.2 KiB (0%)
Title                       : Full (FOCS)
Language                    : Russian
Default                     : No
Forced                      : No

Text #3
ID                          : 5
Format                      : UTF-8
Codec ID                    : S_TEXT/UTF8
Codec ID/Info               : UTF-8 Plain Text
Duration                    : 1 h 39 min
Bit rate                    : 119 b/s
Count of elements           : 1599
Stream size                 : 87.4 KiB (0%)
Title                       : Full
Language                    : Ukrainian
Default                     : No
Forced                      : No

Text #4
ID                          : 6
Format                      : UTF-8
Codec ID                    : S_TEXT/UTF8
Codec ID/Info               : UTF-8 Plain Text
Duration                    : 1 h 40 min
Bit rate                    : 78 b/s
Count of elements           : 1857
Stream size                 : 57.7 KiB (0%)
Title                       : SDH
Language                    : English
Default                     : No
Forced                      : No



Скриншоты:
[+] Всего файлов в раздаче - 1:
Душа.(2020).WEB-DLRip-AVC.[-=DoMiNo=-].mkv745.31 MB

Показать еще раздачи по запросу душа:
2021-01-20 U Бэтмен: Душа дракона / Batman: Soul of the Dragon (2021) WEBRip 1080p | Flarrow Films 3.46 GB ↑ 42 ↓ 5
2021-01-14 U Бэтмен: Душа дракона / Batman: Soul of the Dragon (2021) WEBRip 1080p от NewComers | P 3.72 GB ↑ 76 ↓ 15
2021-01-12 U Душа / Soul (2020) WEB-DLRip от MegaPeer | HDRezka Studio 1.46 GB ↑ 174 ↓ 80
2021-01-12 U Душа / Soul (2020) WEB-DL 1080p от MegaPeer | HDRezka Studio 5.56 GB ↑ 170 ↓ 143
2021-01-10 U Душа / Soul (2020) WEB-DLRip | Line | UKR 1.46 GB ↑ 63 ↓ 9
2021-01-10 U Душа / Soul (2020) WEB-DL 1080p | Line | UKR 5.38 GB ↑ 30 ↓ 14
2021-01-03 U Душа / Soul (2020) WEB-DL-HEVC 2160p | 4K | HDR | L 16.76 GB ↑ 75 ↓ 29

Отзывы
Зарегистрируйтесь чтобы добавить комментарий.
Загрузите программу
  uTorrent.exe
Обратная связь
Copyleft ©