↑↓torrent.by
Поиск
Логин: Регистрация
Пароль: Восстановить пароль

Формирование извращённой силы / Dokyuu Hentai HxEros / Super HxEros [01x01-08 из 12] (2020) BDRip 1080p от Deadmauvlad | Без цензуры | StudioBand

Скачать formirovanie-izvraschennoy-sily-dokyuu-hentai-hxeros-super-01x01-08-iz-12-2020-bdrip-1080p-ot-deadmauvlad-bez-cenzury-studioband.torrent
U Магнитная ссылка Размер: 10.65 GB Раздают: 33 Качают: 33 Добавлен: 2021-01-13 06:46:14
Формирование извращённой силы / Dokyuu Hentai HxEros / Super HxEros [01x01-08 из 12] (2020) BDRip 1080p от Deadmauvlad | Без цензуры | StudioBand

Информация о фильме
Название: Формирование извращённой силы
Оригинальное название: Dokyuu Hentai HxEros
Альтернативное название: Super HxEros
Год выхода: 2020
Жанр:  комедия, сверхъестественное, сёнэн, школа, экшен, этти
Режиссер: Дзимбо Масато
Цензура: Нет ** (см.скрины)

О фильме:
В слове «герой» прячется волнительный корень «эро»… Земля под угрозой! Раса цензуросекомых напала на людей и крадёт их эротизм, отнимая желание жить. Противостоять жутким захватчикам могут лишь пять «самых эротичных» старшеклассников! Встречайте героически-эротичную подростковую комедию от Рёмы Китады! © Wakanim

Страна: Япония
Продолжительность: ~ 00:24:00 (серия)
Перевод: Профессиональный (многоголосый, закадровый) | StudioBand [Wakanim]

Качество: BDRip 1080p | Формат: .MKV| Кодек: AVC
Видео: 1920x1080 (16:9), 23.976 fps, 7 671 kb/s (0.154 bit/pixel)
Аудио №1: DTS, 48.0 kHz, 2 ch, 756 kb/s, CBR |  | Japan (Оригинал)
Аудио №2 (Отдельное аудио): AC-3, 48,0 КГц, 2 ch, 192 Кбит/сек, CBR |  | Wakanim
Субтитры (Russian): ass, внешние (01-06 серия) | полный перевод

Релиз / Автор рипа: Deadmauvlad ^_^
[+] MediaInfo
General
Unique ID                                : 243381449306893422159998150058544733644 (0xB7198FE6A0B7C0F79A1BF596B7F41DCC)
Complete name                            : [Deadmau- RAWS] Dokyuu.Hentai.HxEros.S01.DTS.BDRip.1080p.Deadmauvlad.Ep.01.mkv
Format                                   : Matroska
Format version                           : Version 2
File size                                : 1.39 GiB
Duration                                 : 23 min 41 s
Overall bit rate                         : 8 429 kb/s
Movie name                               : [Deadmau- RAWS] Dokyuu.Hentai.HxEros.S01.DTS.BDRip.720p.Deadmauvlad
Encoded date                             : UTC 2021-01-11 17:05:19
Writing application                      : mkvmerge v7.8.0 ('River Man') 32bit built on Apr  3 2015 12:11:22
Writing library                          : libebml v1.3.1 + libmatroska v1.4.2

Video
ID                                       : 1
Format                                   : AVC
Format/Info                              : Advanced Video Codec
Format profile                           : High@L4.1
Format settings                          : CABAC / 4 Ref Frames
Format settings, CABAC                   : Yes
Format settings, ReFrames                : 4 frames
Codec ID                                 : V_MPEG4/ISO/AVC
Duration                                 : 23 min 41 s
Bit rate                                 : 7 671 kb/s
Width                                    : 1 920 pixels
Height                                   : 1 080 pixels
Display aspect ratio                     : 16:9
Frame rate mode                          : Constant
Frame rate                               : 23.976 (24000/1001) FPS
Color space                              : YUV
Chroma subsampling                       : 4:2:0
Bit depth                                : 8 bits
Scan type                                : Progressive
Bits/(Pixel*Frame)                       : 0.154
Stream size                              : 1.24 GiB (89%)
Title                                    : Encoder by Deadmauvlad
Writing library                          : x264 core 161 r3027+53 2464769 t_mod_New [(8 & 10)-bit@all X86_64]
Encoding settings                        : cabac=1 / ref=4 / deblock=1:1:1 / analyse=0x3:0x113 / me=umh / subme=10 / psy=1 / fade_compensate=0.00 / psy_rd=0.95:0.00 / mixed_ref=0 / me_range=38 / chroma_me=1 / trellis=2 / 8x8dct=1 / cqm=0 / deadzone=21,11 / fast_pskip=1 / chroma_qp_offset=-2 / threads=12 / lookahead_threads=3 / sliced_threads=0 / nr=0 / decimate=1 / interlaced=0 / bluray_compat=0 / constrained_intra=0 / fgo=0 / bframes=16 / b_pyramid=2 / b_adapt=2 / b_bias=0 / direct=1 / weightb=1 / open_gop=0 / weightp=2 / keyint=240 / keyint_min=24 / scenecut=40 / intra_refresh=0 / rc=2pass / mbtree=0 / bitrate=7671 / ratetol=1.0 / qcomp=0.60 / qpmin=2:2:2 / qpmax=69:69:69 / qpstep=4 / cplxblur=20.0 / qblur=0.5 / ip_ratio=1.40 / pb_ratio=1.30 / aq=1:0.96 / aq-sensitivity=10.00 / aq-factor=1.00:1.00:1.00 / aq2=0 / aq3=0
Language                                 : English
Default                                  : Yes
Forced                                   : No

Audio
ID                                       : 2
Format                                   : DTS
Format/Info                              : Digital Theater Systems
Codec ID                                 : A_DTS
Duration                                 : 23 min 41 s
Bit rate mode                            : Constant
Bit rate                                 : 756 kb/s
Channel(s)                               : 2 channels
Channel layout                           : L R
Sampling rate                            : 48.0 kHz
Frame rate                               : 93.750 FPS (512 SPF)
Bit depth                                : 24 bits
Compression mode                         : Lossy
Stream size                              : 128 MiB (9%)
Language                                 : Japanese
Default                                  : No
Forced                                   : No



[+] Список Серий
Серия 1 В этом мире, наполненном светом
Серия 2 Форумы Героев
Серия 3 эффект бабочки
Серия 4 Белоснежка и цвета неба
Серия 5 Восход Экзэроса
Серия 6 Наш новый сосед
Серия 7 Зеро Игра!
Серия 8 H-энергетический монстр



Скриншоты:
[+] Всего файлов в раздаче - 22:
[Deadmau- RAWS] Dokyuu.Hentai.HxEros.S01.DTS.BDRip.1080p.Deadmauvlad.Ep.01.mkv1.39 GB
[Deadmau- RAWS] Dokyuu.Hentai.HxEros.S01.DTS.BDRip.1080p.Deadmauvlad.Ep.02.mkv1.23 GB
[Deadmau- RAWS] Dokyuu.Hentai.HxEros.S01.DTS.BDRip.1080p.Deadmauvlad.Ep.03.mkv1.35 GB
[Deadmau- RAWS] Dokyuu.Hentai.HxEros.S01.DTS.BDRip.1080p.Deadmauvlad.Ep.04.mkv1.31 GB
[Deadmau- RAWS] Dokyuu.Hentai.HxEros.S01.DTS.BDRip.1080p.Deadmauvlad.Ep.05.mkv1.23 GB
[Deadmau- RAWS] Dokyuu.Hentai.HxEros.S01.DTS.BDRip.1080p.Deadmauvlad.Ep.06.mkv1.30 GB
[Deadmau- RAWS] Dokyuu.Hentai.HxEros.S01.DTS.BDRip.1080p.Deadmauvlad.Ep.07.mkv1.34 GB
[Deadmau- RAWS] Dokyuu.Hentai.HxEros.S01.DTS.BDRip.1080p.Deadmauvlad.Ep.08.mkv1.24 GB
RUS Sound/[Deadmau- RAWS] Dokyuu.Hentai.HxEros.S01.DTS.BDRip.1080p.Deadmauvlad.Ep.01.mka32.25 MB
RUS Sound/[Deadmau- RAWS] Dokyuu.Hentai.HxEros.S01.DTS.BDRip.1080p.Deadmauvlad.Ep.02.mka32.25 MB
RUS Sound/[Deadmau- RAWS] Dokyuu.Hentai.HxEros.S01.DTS.BDRip.1080p.Deadmauvlad.Ep.03.mka32.29 MB
RUS Sound/[Deadmau- RAWS] Dokyuu.Hentai.HxEros.S01.DTS.BDRip.1080p.Deadmauvlad.Ep.04.mka32.30 MB
RUS Sound/[Deadmau- RAWS] Dokyuu.Hentai.HxEros.S01.DTS.BDRip.1080p.Deadmauvlad.Ep.05.mka32.30 MB
RUS Sound/[Deadmau- RAWS] Dokyuu.Hentai.HxEros.S01.DTS.BDRip.1080p.Deadmauvlad.Ep.06.mka32.30 MB
RUS Sound/[Deadmau- RAWS] Dokyuu.Hentai.HxEros.S01.DTS.BDRip.1080p.Deadmauvlad.Ep.07.mka32.66 MB
RUS Sound/[Deadmau- RAWS] Dokyuu.Hentai.HxEros.S01.DTS.BDRip.1080p.Deadmauvlad.Ep.08.mka32.61 MB
RUS Subs/[Deadmau- RAWS] Dokyuu.Hentai.HxEros.S01.DTS.BDRip.1080p.Deadmauvlad.Ep.01.ass32.59 kB
RUS Subs/[Deadmau- RAWS] Dokyuu.Hentai.HxEros.S01.DTS.BDRip.1080p.Deadmauvlad.Ep.02.ass27.74 kB
RUS Subs/[Deadmau- RAWS] Dokyuu.Hentai.HxEros.S01.DTS.BDRip.1080p.Deadmauvlad.Ep.03.ass30.92 kB
RUS Subs/[Deadmau- RAWS] Dokyuu.Hentai.HxEros.S01.DTS.BDRip.1080p.Deadmauvlad.Ep.04.ass32.76 kB
RUS Subs/[Deadmau- RAWS] Dokyuu.Hentai.HxEros.S01.DTS.BDRip.1080p.Deadmauvlad.Ep.05.ass31.19 kB
RUS Subs/[Deadmau- RAWS] Dokyuu.Hentai.HxEros.S01.DTS.BDRip.1080p.Deadmauvlad.Ep.06.ass34.48 kB

Похожие раздачи по запросу - формирование:
2019-12-11 U Н.М. Коваль - Обрезка и формирование кустов винограда (1964) PDF 4.85 MB ↑ 632 ↓ 6

Отзывы
Зарегистрируйтесь чтобы добавить комментарий.
Загрузите программу
  uTorrent.exe
Обратная связь
Copyleft ©