↑↓torrent.by
Поиск
Логин: Регистрация
Пароль: Восстановить пароль

Дьен Бьен Фу / Долина Глиняных Кувшинов / Diên Biên Phú (1992) BDRip 1080p | A

Скачать den-ben-fu-dolina-glinyanyh-kuvshinov-di-n-bi-ph-1992-bdrip-1080p-a.torrent
U Магнитная ссылка Размер: 10.13 GB Раздают: 24 Качают: 15 Добавлен: 2021-01-13 06:46:56
Дьен Бьен Фу / Долина Глиняных Кувшинов / Diên Biên Phú (1992) BDRip 1080p | A

Название: Дьен Бьен Фу / Долина Глиняных Кувшинов
Оригинальное название: Diên Biên Phú
Год выхода: 1992
Жанр: Драма, военный
Режиссер: Пьер Шёндёрффер
В ролях: Дональд Плезенс, Патрик Каталифо, Жан-Франсуа Бальмер, Людмила Микаэль, Франсуа Негре, Максим Леру, Рауль Бийре, Зе Ан, Кристофер Буххольц, Патрик Шовель, Эрик До, Тху Ха, Игорь Оссейн, Люк Лавандьер, Жозеф Момо, Сава Лолов, Майте Наир

О фильме:
Дьен Бьен Фу - местечко в долине в северо-восточной части Вьетнама, где произошло главное сражение Первой Индокитайской войны 1946-1954 гг. Вьетнамцами, которыми командовал генерал Во Нгуен Зиап, удалось окружить 14-тысячный французский гарнизон Дьен Бьен Фу своей 72-тысячной армией. Сосредоточив на окружающих высотах артиллерию и минометы, вьетнамцы разрушили взлетные полосы и лишили осажденных подвоза боеприпасов. 7 мая 1954 года французы, потеряв около 2 300 чел. убитыми, капитулировали. После этого поражения Франция согласилась на переговоры, завершившиеся признанием независимости Вьетнама и его разделом. Американский репортер оказывается в самом центре этого 57-дневного сражения, которое в конце концов привело к поражению и сдаче французских сил и уходу Франции из Вьетнама.

Страна: Франция
Студия: Mod Producciones, Films A2
Продолжительность: 02:12:05
Перевод: Aвторский одноголосый | Юрий Живов

Файл
Кодек: x.264
Качество: BDRip 1080p
Видео: MPEG-4 AVC, 10.5 Mбит/с, 1920x816, 24.000 кадр/с
Аудио #1: Русский (АС3, 2 ch, 192 Кбит/с, 48.0 KHz) Aвторский (одноголосый, закадровый) Юрий Живов
Аудио #2: Французский (АС3, 2 ch, 256 Кбит/с, 48.0 KHz)
Субтитры: Русские, английские, французские
Трейлер




[+] MediaInfo
Источник: Dien.Bien.Phu.1992.FRENCH.1080p.BluRay.x264.2.0-HANDJOB
General
Unique ID                      : 232261735091572689980791488888444804204 (0xAEBBFBA97B0C241C83948C1642DBDC6C)
Complete name                  : Dien.Bien.Phu.1992.BDRip.1080p.mkv
Format                         : Matroska
Format version                 : Version 4
File size                      : 10.1 GiB
Duration                       : 2 h 12 min
Overall bit rate               : 11.0 Mb/s
Encoded date                   : UTC 2021-01-11 16:03:12
Writing application            : mkvmerge v7.1.0 ('Good Love') 64bit built on Jul 27 2014 13:06:55
Writing library                : libebml v1.3.0 + libmatroska v1.4.1

Video
ID                             : 1
Format                         : AVC
Format/Info                    : Advanced Video Codec
Format profile                 : High@L4.1
Format settings                : CABAC / 5 Ref Frames
Format settings, CABAC         : Yes
Format settings, Reference fra : 5 frames
Codec ID                       : V_MPEG4/ISO/AVC
Duration                       : 2 h 12 min
Bit rate                       : 10.5 Mb/s
Width                          : 1 920 pixels
Height                         : 816 pixels
Display aspect ratio           : 2.35:1
Frame rate mode                : Constant
Frame rate                     : 24.000 FPS
Color space                    : YUV
Chroma subsampling             : 4:2:0
Bit depth                      : 8 bits
Scan type                      : Progressive
Bits/(Pixel*Frame)             : 0.280
Stream size                    : 9.71 GiB (96%)
Writing library                : x264 core 157 r2935 545de2f
Encoding settings              : cabac=1 / ref=5 / deblock=1:-3:-3 / analyse=0x3:0x133 / me=umh / subme=10 / psy=1 / psy_rd=1.00:0.00 / mixed_ref=1 / me_range=32 / chroma_me=1 / trellis=2 / 8x8dct=1 / cqm=0 / deadzone=21,11 / fast_pskip=0 / chroma_qp_offset=-2 / threads=12 / lookahead_threads=3 / sliced_threads=0 / nr=0 / decimate=0 / interlaced=0 / bluray_compat=0 / constrained_intra=0 / bframes=16 / b_pyramid=2 / b_adapt=2 / b_bias=0 / direct=3 / weightb=1 / open_gop=0 / weightp=2 / keyint=240 / keyint_min=24 / scenecut=40 / intra_refresh=0 / rc_lookahead=60 / rc=crf / mbtree=0 / crf=19.2 / qcomp=0.60 / qpmin=0 / qpmax=69 / qpstep=4 / vbv_maxrate=62500 / vbv_bufsize=78125 / crf_max=0.0 / nal_hrd=none / filler=0 / ip_ratio=1.40 / pb_ratio=1.30 / aq=2:1.00
Language                       : English
Default                        : Yes
Forced                         : No
Color range                    : Limited
Color primaries                : BT.709
Transfer characteristics       : BT.709
Matrix coefficients            : BT.709

Audio #1
ID                             : 2
Format                         : AC-3
Format/Info                    : Audio Coding 3
Commercial name                : Dolby Digital
Codec ID                       : A_AC3
Duration                       : 2 h 12 min
Bit rate mode                  : Constant
Bit rate                       : 192 kb/s
Channel(s)                     : 2 channels
Channel layout                 : L R
Sampling rate                  : 48.0 kHz
Frame rate                     : 31.250 FPS (1536 SPF)
Compression mode               : Lossy
Stream size                    : 181 MiB (2%)
Title                          : AVO | Юрий Живов
Language                       : Russian
Service kind                   : Complete Main
Default                        : Yes
Forced                         : No

Audio #2
ID                             : 3
Format                         : AC-3
Format/Info                    : Audio Coding 3
Commercial name                : Dolby Digital
Codec ID                       : A_AC3
Duration                       : 2 h 12 min
Bit rate mode                  : Constant
Bit rate                       : 256 kb/s
Channel(s)                     : 2 channels
Channel layout                 : L R
Sampling rate                  : 48.0 kHz
Frame rate                     : 31.250 FPS (1536 SPF)
Compression mode               : Lossy
Stream size                    : 242 MiB (2%)
Language                       : French
Service kind                   : Complete Main
Default                        : No
Forced                         : No

Text #1
ID                             : 4
Format                         : UTF-8
Codec ID                       : S_TEXT/UTF8
Codec ID/Info                  : UTF-8 Plain Text
Duration                       : 2 h 8 min
Bit rate                       : 87 b/s
Count of elements              : 1367
Stream size                    : 82.4 KiB (0%)
Language                       : Russian
Default                        : No
Forced                         : No

Text #2
ID                             : 5
Format                         : UTF-8
Codec ID                       : S_TEXT/UTF8
Codec ID/Info                  : UTF-8 Plain Text
Duration                       : 2 h 6 min
Bit rate                       : 47 b/s
Count of elements              : 1363
Stream size                    : 44.3 KiB (0%)
Language                       : English
Default                        : No
Forced                         : No

Text #3
ID                             : 6
Format                         : PGS
Muxing mode                    : zlib
Codec ID                       : S_HDMV/PGS
Codec ID/Info                  : Picture based subtitle format used on BDs/HD-DVDs
Duration                       : 2 h 12 min
Bit rate                       : 10.9 kb/s
Count of elements              : 3212
Stream size                    : 10.3 MiB (0%)
Language                       : French
Default                        : No
Forced                         : No

Menu
00:00:00.000                   : :Chapter 1
00:10:01.042                   : :Chapter 2
00:23:47.792                   : :Chapter 3
00:30:44.792                   : :Chapter 4
00:42:08.583                   : :Chapter 5
00:52:10.750                   : :Chapter 6
01:05:40.333                   : :Chapter 7
01:18:31.208                   : :Chapter 8
01:25:38.417                   : :Chapter 9
01:35:47.375                   : :Chapter 10
01:47:17.167                   : :Chapter 11
01:57:50.208                   : :Chapter 12



Скриншоты:
[+] Всего файлов в раздаче - 1:
Dien.Bien.Phu.1992.BDRip.1080p.mkv10.13 GB

Отзывы
Зарегистрируйтесь чтобы добавить комментарий.
Загрузите программу
  uTorrent.exe
Обратная связь
Copyleft ©