↑↓torrent.by
Поиск
Логин: Регистрация
Пароль: Восстановить пароль

Ангелы возмездия / Les anges exterminateurs (2006) DVDRip-AVC от ExKinoRay | D

Скачать angely-vozmezdiya-les-anges-exterminateurs-2006-dvdrip-avc-ot-exkinoray-d.torrent
U Магнитная ссылка Размер: 1.08 GB Раздают: 153 Качают: 37 Добавлен: 2021-01-13 18:16:22
Ангелы возмездия / Les anges exterminateurs (2006) DVDRip-AVC от ExKinoRay | D

Название: Ангелы возмездия
Оригинальное название: Les Anges exterminateurs
Год выхода: 2006
Жанр:  Драма, эротика
Режиссер: Жан-Клод Бриссо
В ролях: Фредерик ван ден Дрише, Маруся Дюбрёй, Лизе Беллинк, Мари Аллан, Софи Бонне, Рафаэль Годин, Маргарет Зеноу, Жанна Селлар, Виржини Леже, Эстель Галарме

О фильме:
Главный герой, Франсуа, не искушенный опытом кинорежиссер, ищет актрис для полицейского фильма. Так как в картине планируется эротическая сцена, он просит претенденток изобразить оргазм. Возможно из-за присутствия режиссера и камеры – одна из претенденток заявляет, что испытала оргазм по-настоящему - первый раз в жизни. Франсуа заинтригован. После этого случая он решает организовать новый проект, исследующий эту тему. Но герой не предполагает, во что может вылиться это исследование.

Страна: Франция
Студия: Centre National de la Cinématographie (CNC), Ciné Cinémas
Продолжительность: 01:38:47
Перевод: Профессиональный (полное дублирование)

Файл
Формат: MKV
Качество: DVDRip-AVC
Видео: MPEG-4 AVC, 696x522, 1480 Кбит/с
Аудио:  AAC-HE, 2 ch, 76 Кбит/с
Cубтитры: Русские


[+] MI
Общее
Уникальный идентификатор : 124769025866995999274165588498657655853 (0x5DDDA3EB06124E38ADCC039977C93C2D)
Полное имя : D:MOVIESAngely.vozmezdiya.2006.DVDRip-AVC.ExKinoRay.mkv
Формат : Matroska
Версия формата : Version 4
Размер файла : 1,08 Гбайт
Продолжительность : 1 ч. 38 м.
Общий поток : 1 558 Кбит/сек
Дата кодирования : UTC 2021-01-13 04:38:51
Программа кодирования : mkvmerge v45.0.0 ('Heaven in Pennies') 64-bit
Библиотека кодирования : libebml v1.3.10 + libmatroska v1.5.2

Видео
Идентификатор : 1
Формат : AVC
Формат/Информация : Advanced Video Codec
Профиль формата : High@L4.1
Настройки формата : CABAC / 15 Ref Frames
Параметр CABAC формата : Да
Параметр RefFrames формата : 15 кадров
Идентификатор кодека : V_MPEG4/ISO/AVC
Продолжительность : 1 ч. 38 м.
Битрейт : 1 480 Кбит/сек
Ширина : 696 пикселей
Высота : 522 пикселя
Соотношение сторон : 4:3
Режим частоты кадров : Постоянный
Частота кадров : 25,000 кадров/сек
Цветовое пространство : YUV
Субдискретизация насыщенности : 4:2:0
Битовая глубина : 8 бит
Тип развёртки : Прогрессивная
Бит/(Пиксели*Кадры) : 0.163
Размер потока : 1,02 Гбайт (95%)
Библиотека кодирования : x264 core 160 r3000 33f9e14
Настройки программы : cabac=1 / ref=15 / deblock=1:-3:-3 / analyse=0x3:0x133 / me=umh / subme=10 / psy=1 / psy_rd=1.05:0.14 / mixed_ref=1 / me_range=32 / chroma_me=1 / trellis=2 / 8x8dct=1 / cqm=0 / deadzone=21,11 / fast_pskip=0 / chroma_qp_offset=-3 / threads=6 / lookahead_threads=1 / sliced_threads=0 / nr=0 / decimate=0 / interlaced=0 / bluray_compat=0 / constrained_intra=0 / bframes=10 / b_pyramid=2 / b_adapt=2 / b_bias=0 / direct=3 / weightb=1 / open_gop=0 / weightp=2 / keyint=250 / keyint_min=25 / scenecut=40 / intra_refresh=0 / rc=2pass / mbtree=0 / bitrate=1480 / ratetol=1.0 / qcomp=0.60 / qpmin=0 / qpmax=69 / qpstep=4 / cplxblur=20.0 / qblur=0.5 / ip_ratio=1.40 / pb_ratio=1.30 / aq=1:1.00
Default : Да
Forced : Нет
Цветовой диапазон : Limited
Основные цвета : BT.709
Характеристики трансфера : BT.709
Коэффициенты матрицы : BT.709

Аудио
Идентификатор : 2
Формат : AAC LC SBR
Формат/Информация : Advanced Audio Codec Low Complexity with Spectral Band Replication
Коммерческое название : HE-AAC
Настройки формата : Explicit
Идентификатор кодека : A_AAC-2
Продолжительность : 1 ч. 38 м.
Битрейт : 76,0 Кбит/сек
Каналы : 2 канала
Channel layout : L R
Частота : 48,0 КГц
Частота кадров : 23,438 кадра/сек (2048 SPF)
Метод сжатия : С потерями
Задержка видео : 31 мс.
Размер потока : 53,7 Мбайт (5%)
Язык : Russian
Default : Да
Forced : Нет

Текст
Идентификатор : 3
Формат : UTF-8
Идентификатор кодека : S_TEXT/UTF8
Идентификатор кодека/Информация : UTF-8 Plain Text
Продолжительность : 1 ч. 37 м.
Битрейт : 96 бит/сек
Count of elements : 846
Размер потока : 68,5 Кбайт (0%)
Язык : Russian
Default : Да
Forced : Нет

Меню
00:00:00.000 : en:Chapter 01
00:09:22.000 : en:Chapter 02
00:15:59.200 : en:Chapter 03
00:23:19.120 : en:Chapter 04
00:30:50.560 : en:Chapter 05
00:39:09.160 : en:Chapter 06
00:51:11.800 : en:Chapter 07
01:00:23.440 : en:Chapter 08
01:09:56.680 : en:Chapter 09
01:18:00.520 : en:Chapter 10
01:27:21.040 : en:Chapter 11
01:37:04.720 : en:Chapter 12
01:38:46.840 : en:Chapter 13
01:38:47.320 : en:Chapter 14



Скриншоты:
[+] Всего файлов в раздаче - 1:
Angely.vozmezdiya.2006.DVDRip-AVC.ExKinoRay.mkv1.08 GB

Похожие раздачи по запросу - ангелы:
2020-12-02 U Ангелы [01-16 из 16] (2020) WEB-DLRip-AVC от Files-х 8.01 GB ↑ 105 ↓ 39
2020-03-11 U Ангелы Чарли / Charlie's Angels (2019) BDRip от MegaPeer | Лицензия 1.46 GB ↑ 205 ↓ 63
2020-02-17 U Ангелы Чарли / Charlie's Angels (2019) WEB-DLRip от MegaPeer | iTunes 1.46 GB ↑ 750 ↓ 61

Отзывы
Зарегистрируйтесь чтобы добавить комментарий.
Загрузите программу
  uTorrent.exe
Обратная связь
Copyleft ©