↑↓torrent.by
Поиск
Логин: Регистрация
Пароль: Восстановить пароль

Медвежий угол / Björnstad / Beartown [S01] (2020) WEB-DLRip | Amedia

Скачать medvezhiy-ugol-bj-rnstad-beartown-s01-2020-web-dlrip-amedia.torrent
U Магнитная ссылка Размер: 3.92 GB Раздают: 129 Качают: 59 Добавлен: 2021-01-13 18:16:34
Медвежий угол / Björnstad / Beartown [S01] (2020) WEB-DLRip | Amedia

Название: Медвежий угол
Оригинальное название: Björnstad / Beartown
Год выхода: 2020
Жанр: драма
Режиссер: Петер Гренлунд
В ролях: Ульф Штенберг, Мириам Бенте, Оливер Дюфокер, Алиетт Офейм, Тобиаш Зиллиакус, Якоб Норденсон, Tomas Bergström, Шарлотта Йонсон, Otto Fahlgren, Alfons Nordberg

О фильме: Сюжет рассказывает о трагедии в провинциальном городке Бьорнстад, который может похвастаться только своей юниорской хоккейной командой. Накануне важного участия в полуфинале лучшего игрока команды обвиняют в изнасиловании дочери спортивного директора. Город погружается в сплетни, раздор и хаос.

Страна: Швеция
Студия: Filmlance International AB
Продолжительность: ~00:56:00 серия
Перевод: Профессиональный (многоголосый, закадровый) Amedia

Файл
Качество: WEB-DLRip
Формат: AVI
Видео: 704x352 at 25.000 fps, DivX, ~1500 kbps avg
Аудио#1: Russian: 48 kHz, AC3, 2/0 (L,R) ch, ~192 kbps avg |Многоголосый закадровый, Amedia|
Аудио#2: Swedish: 48 kHz, AC3, 2/0 (L,R) ch, ~192 kbps avg
Субтитры: None

***Примечание: Без рекламы
***Релиз: miha2154


[+] MediaInfo
Общее
Полное имя : Björnstad.S01E01.WEB-DLRip.Rus.Swe.avi
Формат : AVI
Формат/Информация : Audio Video Interleave
Размер файла : 804 Мбайт
Продолжительность : 57 м. 7 с.
Общий поток : 1968 Кбит/сек
Название фильма : Медвежий угол. Сезон 1 / Bjornstad. Sasong (2020)
Программа кодирования : VirtualDubMod 1.5.10.2 (build 2540/release)
Библиотека кодирования : VirtualDubMod build 2540/release
Авторское право : miha2154

Видео
Идентификатор : 0
Формат : MPEG-4 Visual
Профиль формата : Advanced Simple@L5
Настройки формата : BVOP1 / Custom Matrix
Параметр BVOP формата : 1
Параметр QPel формата : Нет
Параметр GMC формата : Без точки перехода
Параметр матрицы формата : Выборочная
Идентификатор кодека : DX50
Идентификатор кодека/Подсказка : DivX 5
Продолжительность : 57 м. 7 с.
Битрейт : 1569 Кбит/сек
Ширина : 704 пикселя
Высота : 352 пикселя
Соотношение сторон : 2,000
Частота кадров : 25,000 кадров/сек
Цветовое пространство : YUV
Субдискретизация насыщенности : 4:2:0
Битовая глубина : 8 бит
Тип развёртки : Прогрессивная
Метод сжатия : С потерями
Бит/(Пиксели*Кадры) : 0.253
Размер потока : 641 Мбайт (80%)
Библиотека кодирования : XviD 65

Аудио #1
Идентификатор : 1
Формат : AC-3
Формат/Информация : Audio Coding 3
Коммерческое название : Dolby Digital
Идентификатор кодека : 2000
Продолжительность : 57 м. 7 с.
Вид битрейта : Постоянный
Битрейт : 192 Кбит/сек
Каналы : 2 канала
Channel layout : L R
Частота : 48,0 КГц
Частота кадров : 31,250 кадров/сек (1536 SPF)
Битовая глубина : 16 бит
Метод сжатия : С потерями
Размер потока : 78,4 Мбайт (10%)
Выравнивание : Разделение по промежуткам
Продолжительность промежутка : 40 мс. (1,00 видеокадр)
Время предзагрузки промежутка : 500 мс.
Заголовок : Профессиональный (многоголосый, закадровый) Amedia
ServiceKind/String : Complete Main

Аудио #2
Идентификатор : 2
Формат : AC-3
Формат/Информация : Audio Coding 3
Коммерческое название : Dolby Digital
Идентификатор кодека : 2000
Продолжительность : 57 м. 7 с.
Вид битрейта : Постоянный
Битрейт : 192 Кбит/сек
Каналы : 2 канала
Channel layout : L R
Частота : 48,0 КГц
Частота кадров : 31,250 кадров/сек (1536 SPF)
Битовая глубина : 16 бит
Метод сжатия : С потерями
Размер потока : 78,4 Мбайт (10%)
Выравнивание : Разделение по промежуткам
Продолжительность промежутка : 40 мс. (1,00 видеокадр)
Время предзагрузки промежутка : 500 мс.
Заголовок : Шведский
ServiceKind/String : Complete Main



Скриншоты:
[+] Всего файлов в раздаче - 5:
Björnstad.S01E01.WEB-DLRip.Rus.Swe.avi804.01 MB
Björnstad.S01E02.WEB-DLRip.Rus.Swe.avi803.16 MB
Björnstad.S01E03.WEB-DLRip.Rus.Swe.avi803.47 MB
Björnstad.S01E04.WEB-DLRip.Rus.Swe.avi803.08 MB
Björnstad.S01E05.WEB-DLRip.Rus.Swe.avi803.38 MB

Отзывы
Зарегистрируйтесь чтобы добавить комментарий.
Загрузите программу
  uTorrent.exe
Обратная связь
Copyleft ©