↑↓torrent.by
Поиск
Логин: Регистрация
Пароль: Восстановить пароль

Хандра (2019) WEB-DLRip-AVC от ExKinoRay

Скачать handra-2019-web-dlrip-avc-ot-exkinoray.torrent
U Магнитная ссылка Размер: 1.45 GB Раздают: 94 Качают: 20 Добавлен: 2021-01-13 18:16:54
Хандра (2019) WEB-DLRip-AVC от ExKinoRay

Название: Хандра
Год выхода: 2019
Жанр: Комедия
Режиссер: Алексей Камынин
В ролях: Данила Якушев, Михаил Тройник, Кирилл Ковбас, Екатерина Агеева, Ксения Зуева, Семен Барков, Анастасия Куимова, Аня Чиповская, Равшана Куркова, Тимофей Трибунцев

О фильме: Это правдивая история троих друзей, снимающих вместе квартиру в Москве. Безработный Деня встречает беременную бывшую из Красноярка, диджей Виталик теряет деньги за хату, а режиссер Леша пытается вместо рекламы кондиционеров снять артхаусный фильм. Разобраться с проблемами друзьям мешают киргизы-заговорщики, врачи-сексисты, омоновцы-ГЛИЦИНисты и прочие небезопасные сограждане. А все это – ради того, чтобы каждый на утро проснулся счастливым.

Страна: Россия
Студия: Кинокомпания «Смена»
Продолжительность: 01:41:36
Язык: Русский

Формат: MKV
Качество: WEB-DLRip-AVC
Видео: MPEG-4 AVC, 720x390 (1.85:1), 25.000 fps, 1659 Kbps, 0.236 bit/pixel
Аудио : 48 kHz, AC3, 5.1, 384 Kbps | RUS |

Релиз:

Автор релиза:


[+] ОтчетМедиаИнфо
General
Unique ID                                : 171098140487566061390555857332024882382 (0x80B84D9FC954E13E8372CA01C19BB4CE)
Complete name                            : G:Handra.2019.AVC.ExKinoRay.mkv
Format                                   : Matroska
Format version                           : Version 2
File size                                : 1.45 GiB
Duration                                 : 1 h 41 min
Overall bit rate                         : 2 042 kb/s
Movie name                               : Хандра 2019 from ExKinoRay
Encoded date                             : UTC 2021-01-12 21:19:14
Writing application                      : mkvmerge v5.6.0 ('Kenya Kane') built on May 27 2012 16:44:04
Writing library                          : libebml v1.2.3 + libmatroska v1.3.0

Video
ID                                       : 1
Format                                   : AVC
Format/Info                              : Advanced Video Codec
Format profile                           : High@L4.1
Format settings, CABAC                   : Yes
Format settings, ReFrames                : 12 frames
Codec ID                                 : V_MPEG4/ISO/AVC
Duration                                 : 1 h 41 min
Bit rate                                 : 1 659 kb/s
Width                                    : 720 pixels
Height                                   : 390 pixels
Display aspect ratio                     : 1.85:1
Frame rate mode                          : Constant
Frame rate                               : 25.000 FPS
Color space                              : YUV
Chroma subsampling                       : 4:2:0
Bit depth                                : 8 bits
Scan type                                : Progressive
Bits/(Pixel*Frame)                       : 0.236
Stream size                              : 1.15 GiB (79%)
Title                                    : Enigma
Writing library                          : x264 core 152 r2851 ba24899
Encoding settings                        : cabac=1 / ref=12 / deblock=1:-2:-2 / analyse=0x3:0x113 / me=umh / subme=10 / psy=1 / psy_rd=1.05:0.05 / mixed_ref=1 / me_range=32 / chroma_me=1 / trellis=2 / 8x8dct=1 / cqm=0 / deadzone=21,11 / fast_pskip=0 / chroma_qp_offset=-3 / threads=12 / lookahead_threads=3 / sliced_threads=0 / nr=0 / decimate=0 / interlaced=0 / bluray_compat=0 / constrained_intra=0 / bframes=10 / b_pyramid=2 / b_adapt=2 / b_bias=0 / direct=3 / weightb=1 / open_gop=0 / weightp=2 / keyint=250 / keyint_min=25 / scenecut=40 / intra_refresh=0 / rc=2pass / mbtree=0 / bitrate=1659 / ratetol=1.0 / qcomp=0.60 / qpmin=0 / qpmax=51 / qpstep=4 / cplxblur=20.0 / qblur=0.5 / ip_ratio=1.30 / pb_ratio=1.20 / aq=1:1.00
Default                                  : Yes
Forced                                   : No
Color range                              : Limited
Color primaries                          : BT.709
Transfer characteristics                 : BT.709
Matrix coefficients                      : BT.709

Audio
ID                                       : 2
Format                                   : AC-3
Format/Info                              : Audio Coding 3
Mode extension                           : CM (complete main)
Format settings, Endianness              : Big
Codec ID                                 : A_AC3
Duration                                 : 1 h 41 min
Bit rate mode                            : Constant
Bit rate                                 : 384 kb/s
Channel(s)                               : 6 channels
Channel positions                        : Front: L C R, Side: L R, LFE
Sampling rate                            : 48.0 kHz
Frame rate                               : 31.250 FPS (1536 spf)
Compression mode                         : Lossy
Stream size                              : 279 MiB (19%)
Language                                 : Russian
Default                                  : Yes
Forced                                   : No




Скриншоты:
[+] Всего файлов в раздаче - 1:
Handra.2019.AVC.ExKinoRay.mkv1.45 GB

Похожие раздачи по запросу - хандра:
2021-01-14 U Хандра (2019) WEB-DLRip-AVC от Files-х 1.46 GB ↑ 49 ↓ 17
2021-01-13 U Хандра (2019) WEB-DLRip от Files-x 1.46 GB ↑ 61 ↓ 10
2021-01-13 U Хандра (2019) WEB-DL 1080p от ExKinoRay 3.96 GB ↑ 35 ↓ 21
2020-12-13 U Хандра (2019) WEBRip 747.54 MB ↑ 211 ↓ 42
2020-12-12 U Хандра (2019) WEBRip 1080p 4.59 GB ↑ 377 ↓ 205
2020-12-12 U Хандра (2019) WEBRip от MegaPeer 1.46 GB ↑ 342 ↓ 166

Отзывы
Зарегистрируйтесь чтобы добавить комментарий.
Загрузите программу
  uTorrent.exe
Обратная связь
Copyleft ©