↑↓torrent.by
Поиск
Логин: Регистрация
Пароль: Восстановить пароль

Друзья на свою голову / Le bonheur des uns... (2020) WEB-DL 720p от ELEKTRI4KA | iTunes

Скачать druzya-na-svoyu-golovu-le-bonheur-des-uns-2020-web-dl-720p-ot-elektri4ka-itunes.torrent
U Магнитная ссылка Размер: 3.16 GB Раздают: 95 Качают: 43 Добавлен: 2021-01-13 18:17:06
Друзья на свою голову / Le bonheur des uns... (2020) WEB-DL 720p от ELEKTRI4KA | iTunes

Название: Друзья на свою голову
Оригинальное название: Le bonheur des uns...
Год выхода: 2020
Жанр: комедия
Режиссер: Даниэль Коэн
В ролях: Беренис Бежо, Венсан Кассель, Франсуа Дамиенс, Флоренс Форести, Даниэль Коэн, Алис Карель, Брюно Гуэри, Биг Джон, Кэролайн Питти

О фильме: Леа и Марк, Карин и Фрэнсис – две пары закадычных друзей. Но когда скромная тихоня Лея публикует роман и он в одно мгновение становится бестселлером, отношения между семьями дают сбой. Ревность, шок, зависть: только став успешным, можно узнать, кто твой настоящий друг.

Страна: Франция
Студия: Cinéfrance Studios, SND Films, Artémis Productions
Продолжительность: 01:42:08
Озвучивание: Дублированный | iTunes

Файл
Формат: MKV
Качество: WEB-DL 720p
Видео: MPEG-4 AVC, 3960 Kbit/s, 1280x536, 24 fps
Аудио: 48 kHz, AC3 Dolby Digital, 3/2 (L, C, R, l, r) + LFE ch, ~384 kbps
Субтитры: Нет
Дополнительно: Сохранены оригинальные чаптеры.

Релиз: &


[+] MediaInfo:
Druzya.na.svoyu.golovu.2020.WEB-DL.720p.ELEKTRI4KA.UNIONGANG.mkv
Format                                   : Matroska
Format version                           : Version 2
File size                                : 3.16 GiB
Duration                                 : 1 h 42 min
Overall bit rate                         : 4 432 kb/s
Encoded date                             : UTC 2021-01-13 09:20:47
Writing application                      : mkvmerge v5.8.0 ('No Sleep / Pillow') built on Sep  2 2012 15:37:04
Writing library                          : libebml v1.2.3 + libmatroska v1.3.0

Video
ID                                       : 1
Format                                   : AVC
Format/Info                              : Advanced Video Codec
Format profile                           : Main@L3.1
Format settings, CABAC                   : No
Format settings, Reference frames        : 2 frames
Muxing mode                              : Header stripping
Codec ID                                 : V_MPEG4/ISO/AVC
Duration                                 : 1 h 42 min
Bit rate                                 : 3 960 kb/s
Width                                    : 1 280 pixels
Height                                   : 536 pixels
Display aspect ratio                     : 2.40:1
Frame rate mode                          : Constant
Frame rate                               : 24.000 FPS
Color space                              : YUV
Chroma subsampling                       : 4:2:0
Bit depth                                : 8 bits
Scan type                                : Progressive
Bits/(Pixel*Frame)                       : 0.240
Stream size                              : 2.83 GiB (89%)
Language                                 : French
Default                                  : Yes
Forced                                   : Yes
Color range                              : Limited
Color primaries                          : BT.709
Transfer characteristics                 : BT.709
Matrix coefficients                      : BT.709

Audio
ID                                       : 2
Format                                   : AC-3
Format/Info                              : Audio Coding 3
Mode extension                           : CM (complete main)
Format settings, Endianness              : Big
Muxing mode                              : Header stripping
Codec ID                                 : A_AC3
Duration                                 : 1 h 42 min
Bit rate mode                            : Constant
Bit rate                                 : 384 kb/s
Channel(s)                               : 6 channels
Channel positions                        : Front: L C R, Side: L R, LFE
Sampling rate                            : 48.0 kHz
Frame rate                               : 31.250 FPS (1536 spf)
Bit depth                                : 16 bits
Compression mode                         : Lossy
Stream size                              : 281 MiB (9%)
Language                                 : Russian
Default                                  : Yes
Forced                                   : Yes

Menu
00:00:00.000                             : ru:Глава 1
00:04:39.125                             : ru:Глава 2
00:13:46.208                             : ru:Глава 3
00:20:16.124                             : ru:Глава 4
00:27:16.874                             : ru:Глава 5
00:35:12.624                             : ru:Глава 6
00:43:18.207                             : ru:Глава 7
00:52:51.415                             : ru:Глава 8
01:01:26.456                             : ru:Глава 9
01:09:02.747                             : ru:Глава 10
01:17:23.288                             : ru:Глава 11
01:24:08.829                             : ru:Глава 12
01:30:29.079                             : ru:Глава 13
01:34:56.245                             : ru:Глава 14



Скриншоты:
[+] Всего файлов в раздаче - 1:
Druzya.na.svoyu.golovu.2020.WEB-DL.720p.ELEKTRI4KA.UNIONGANG.mkv3.16 GB

Похожие раздачи по запросу - друзья:
Сегодня U Друзья / Friends [S01-10] (1994-2004) BDRip | Paramount Comedy 67.45 GB ↑ 27 ↓ 50
2021-01-15 U Друзья на свою голову / Le bonheur des uns... (2020) WEB-DLRip-AVC | iTunes 1.52 GB ↑ 76 ↓ 22
2021-01-14 U Очень русские друзья / Ziemlich russische Freunde (2020) HDTVRip | L2 1.24 GB ↑ 101 ↓ 28
2021-01-13 U Друзья на свою голову / Le bonheur des uns... (2020) WEB-DLRip от ELEKTRI4KA | iTunes 1.46 GB ↑ 364 ↓ 142
2021-01-13 U Друзья на свою голову / Le bonheur des uns... (2020) WEB-DL 1080p от ELEKTRI4KA | iTunes 3.53 GB ↑ 373 ↓ 209

Отзывы
Зарегистрируйтесь чтобы добавить комментарий.
Загрузите программу
  uTorrent.exe
Обратная связь
Copyleft ©