↑↓torrent.by
Поиск
Логин: Регистрация
Пароль: Восстановить пароль

Дорогие товарищи! (2020) WEB-DL 1080p | iTunes

Скачать dorogie-tovarischi-2020-web-dl-1080p-itunes.torrent
U Магнитная ссылка Размер: 4.34 GB Раздают: 391 Качают: 188 Добавлен: 2021-01-14 04:09:59
Дорогие товарищи! (2020) WEB-DL 1080p | iTunes

Название: Дорогие товарищи!
Год выхода: 2020
Жанр: Драма, история
Страна: Россия
Перевод: Не требуется
Продолжительность: 02:00:29
Режиссер: Андрей Кончаловский
В ролях: Юлия Высоцкая, Сергей Эрлиш, Юлия Бурова, Андрей Гусев, Владислав Комаров, Дмитрий Костяев, Иван Мартынов, Вячеслав Пигарев, Анатолий Петрунин, Артём Крысин и др.

О фильме: 1962 год, в советском Новочеркасске — забастовка на главном городском заводе, люди требуют снижения цен на продукты и повышения зарплат. Когда к забастовке присоединяются рабочие других предприятий, правительственная комиссия решает ввести в город армию, и через считанные часы на улицах звучат выстрелы боевыми патронами. Работница парткома Людмила искренне верит в то, что строит коммунистическое общество и возмущается поведением заводских смутьянов. Но когда в бойне на площади без вести пропадает её дочь-подросток, стройная картина мира убежденной коммунистки рушится в одночасье.

Файл
Качество: WEB-DL 1080p
Видео: MPEG-4 AVC, 1438x1080, 4768 kbps, 24,000 fps
Звук: русский, AC3, 5.1 ch, 48 kHz, 384 kbps
Субтитры: нет

Релиз:


[+] MI
Общее
Уникальный идентификатор                 : 237651991999465053763377458290965341585 (0xB2CA1BD89494BC43BD5EEF165DAFE591)
Полное имя                               : F:TorrentDorogieTovarishchiWEBDL1080p.mkv
Формат                                   : Matroska
Версия формата                           : Version 4 / Version 2
Размер файла                             : 4,34 Гбайт
Продолжительность                        : 2 ч. 0 м.
Общий поток                              : 5153 Кбит/сек
Дата кодирования                         : UTC 2021-01-13 19:54:26
Программа кодирования                    : mkvmerge v9.5.0 ('Quiet Fire') 64bit
Библиотека кодирования                   : libebml v1.3.4 + libmatroska v1.4.5

Видео
Идентификатор                            : 1
Формат                                   : AVC
Формат/Информация                        : Advanced Video Codec
Профиль формата                          : High@L4
Настройки формата                        : CABAC / 5 Ref Frames
Параметр CABAC формата                   : Да
Параметр RefFrames формата               : 5 кадров
Идентификатор кодека                     : V_MPEG4/ISO/AVC
Продолжительность                        : 2 ч. 0 м.
Битрейт                                  : 4768 Кбит/сек
Ширина                                   : 1438 пикселей
Высота                                   : 1080 пикселей
Соотношение сторон                       : 4:3
Режим частоты кадров                     : Постоянный
Частота кадров                           : 24,000 кадра/сек
Цветовое пространство                    : YUV
Субдискретизация насыщенности            : 4:2:0
Битовая глубина                          : 8 бит
Тип развёртки                            : Прогрессивная
Бит/(Пиксели*Кадры)                      : 0.128
Размер потока                            : 4,01 Гбайт (93%)
Язык                                     : Russian
Default                                  : Да
Forced                                   : Нет
Цветовой диапазон                        : Limited
Основные цвета                           : BT.709
Характеристики трансфера                 : BT.709
Коэффициенты матрицы                     : BT.709

Аудио
Идентификатор                            : 2
Формат                                   : AC-3
Формат/Информация                        : Audio Coding 3
Параметр Endianness формата              : Big
Идентификатор кодека                     : A_AC3
Продолжительность                        : 2 ч. 0 м.
Вид битрейта                             : Постоянный
Битрейт                                  : 384 Кбит/сек
Каналы                                   : 6 каналов
Расположение каналов                     : Front: L C R, Side: L R, LFE
Частота                                  : 48,0 КГц
Частота кадров                           : 31,250 кадров/сек (1536 SPF)
Битовая глубина                          : 16 бит
Метод сжатия                             : С потерями
Размер потока                            : 331 Мбайт (7%)
Язык                                     : Russian
Default                                  : Да
Forced                                   : Нет

Меню
00:00:00.000                             : en:Глава 1
00:08:26.500                             : en:Глава 2
00:17:18.375                             : en:Глава 3
00:25:35.875                             : en:Глава 4
00:34:01.458                             : en:Глава 5
00:42:33.999                             : en:Глава 6
00:50:40.457                             : en:Глава 7
00:59:30.998                             : en:Глава 8
01:08:04.706                             : en:Глава 9
01:16:13.289                             : en:Глава 10
01:24:56.996                             : en:Глава 11
01:33:59.828                             : en:Глава 12
01:42:46.160                             : en:Глава 13
01:50:46.576                             : en:Глава 14



Скриншоты:
[+] Всего файлов в раздаче - 1:
DorogieTovarishchiWEBDL1080p.mkv4.34 GB

Похожие раздачи по запросу - дорогие:
2021-01-15 U Дорогие товарищи! (2020) WEB-DLRip-AVC от Files-х | iTunes 2.03 GB ↑ 226 ↓ 26
2021-01-14 U Дорогие товарищи! (2020) WEB-DLRip от ExKinoRay | iTunes 1К746.20 MB ↑ 190 ↓ 49
2021-01-14 U Дорогие товарищи! (2020) WEB-DLRip от Files-x | iTunes 2.06 GB ↑ 359 ↓ 103
2021-01-14 U Дорогие товарищи! (2020) WEB-DLRip | iTunes 1К1.46 GB ↑ 727 ↓ 246

Отзывы
Зарегистрируйтесь чтобы добавить комментарий.
Загрузите программу
  uTorrent.exe
Обратная связь
Copyleft ©