↑↓torrent.by
Поиск
Логин: Регистрация
Пароль: Восстановить пароль

Интимные приключения / A l'aventure (2008) WEB-DLRip-AVC от ExKinoRay | P2

Скачать intimnye-priklyucheniya-a-l-aventure-2008-web-dlrip-avc-ot-exkinoray-p2.torrent
U Магнитная ссылка Размер: 1.29 GB Раздают: 33 Качают: 21 Добавлен: 2021-01-14 04:11:03
Интимные приключения / A l'aventure (2008) WEB-DLRip-AVC от ExKinoRay | P2

Название: Интимные приключения
Оригинальное название: A l'aventure
Год выхода: 2008
Жанр:  Драма, мелодрама, эротика
Режиссер: Жан-Клод Бриссо
В ролях: Кэрол Брана, Арно Бинар, Надя Шибани, Лизе Беллинк, Этьен Шико, Эстель Галарме, Фридерик Асписи, Жослин Киврен, Мишель Лару

О фильме:
В жизни каждой молодой женщины было свое «приключеньице»… Кароль все нравится в ее молодом человеке, мешает одна маленькая проблема: секс с ним ее совсем не удовлетворяет. Когда главная героиня случайно знакомится с девушкой по имени Софи, которая предлагает ей совершить необычное и опасное путешествие в мир чувственности, она соглашается не задумываясь. Гипноз, эксперименты с собственным телом и сознанием, тайны, разгадки которых нужно искать глубоко в подсознании… И «приключеньице» перерастает в настоящее открытие новой вселенной, которое полностью изменит ее жизнь.

Страна: Франция
Студия: Amplitude Publishing, La Sorciere Rouge, Moby Dick Films, Soficinema 3
Продолжительность: 01:43:37
Перевод: Профессиональный (двухголосый закадровый)

Файл
Формат: MKV
Качество: WEB-DLRip-AVC
Видео: MPEG-4 AVC, 768x576, 1595 Кбит/с
Аудио:  AC3, 2 ch, 192 Кбит/с
Субтитры: Английские (хардсаб)


[+] MI
Общее
Уникальный идентификатор : 47932793329195926048096866455731664833 (0x240F852BC45DF6FE877E7D31F10977C1)
Полное имя : D:MOVIESIntimnie.prikluchenij.2008.WEB-DLRip-AVC.ExKinoRay.mkv
Формат : Matroska
Версия формата : Version 4
Размер файла : 1,29 Гбайт
Продолжительность : 1 ч. 43 м.
Общий поток : 1 787 Кбит/сек
Дата кодирования : UTC 2021-01-13 18:57:39
Программа кодирования : mkvmerge v45.0.0 ('Heaven in Pennies') 64-bit
Библиотека кодирования : libebml v1.3.10 + libmatroska v1.5.2

Видео
Идентификатор : 1
Формат : AVC
Формат/Информация : Advanced Video Codec
Профиль формата : High@L4.1
Настройки формата : CABAC / 13 Ref Frames
Параметр CABAC формата : Да
Параметр RefFrames формата : 13 кадров
Идентификатор кодека : V_MPEG4/ISO/AVC
Продолжительность : 1 ч. 43 м.
Битрейт : 1 595 Кбит/сек
Ширина : 768 пикселей
Высота : 576 пикселей
Соотношение сторон : 4:3
Режим частоты кадров : Постоянный
Частота кадров : 23,976 (24000/1001) кадра/сек
Цветовое пространство : YUV
Субдискретизация насыщенности : 4:2:0
Битовая глубина : 8 бит
Тип развёртки : Прогрессивная
Бит/(Пиксели*Кадры) : 0.150
Размер потока : 1,15 Гбайт (89%)
Библиотека кодирования : x264 core 160 r3000 33f9e14
Настройки программы : cabac=1 / ref=13 / deblock=1:-2:-2 / analyse=0x3:0x133 / me=umh / subme=10 / psy=1 / psy_rd=1.05:0.15 / mixed_ref=1 / me_range=32 / chroma_me=1 / trellis=2 / 8x8dct=1 / cqm=0 / deadzone=21,11 / fast_pskip=0 / chroma_qp_offset=-3 / threads=6 / lookahead_threads=1 / sliced_threads=0 / nr=0 / decimate=0 / interlaced=0 / bluray_compat=0 / constrained_intra=0 / bframes=9 / b_pyramid=2 / b_adapt=2 / b_bias=0 / direct=3 / weightb=1 / open_gop=0 / weightp=2 / keyint=240 / keyint_min=23 / scenecut=40 / intra_refresh=0 / rc=2pass / mbtree=0 / bitrate=1595 / ratetol=1.0 / qcomp=0.60 / qpmin=0 / qpmax=69 / qpstep=4 / cplxblur=20.0 / qblur=0.5 / ip_ratio=1.40 / pb_ratio=1.30 / aq=1:1.00
Язык : English
Default : Да
Forced : Нет
Цветовой диапазон : Limited
Основные цвета : BT.709
Характеристики трансфера : BT.709
Коэффициенты матрицы : BT.709

Аудио
Идентификатор : 2
Формат : AC-3
Формат/Информация : Audio Coding 3
Коммерческое название : Dolby Digital
Идентификатор кодека : A_AC3
Продолжительность : 1 ч. 43 м.
Вид битрейта : Постоянный
Битрейт : 192 Кбит/сек
Каналы : 2 канала
Channel layout : L R
Частота : 48,0 КГц
Частота кадров : 31,250 кадров/сек (1536 SPF)
Метод сжатия : С потерями
Размер потока : 142 Мбайт (11%)
Язык : Russian
Service kind : Complete Main
Default : Да
Forced : Нет

Меню
00:00:00.000 : en:1
00:05:12.000 : en:2
00:10:14.000 : en:3
00:16:03.000 : en:4
00:20:15.000 : en:5
00:25:56.000 : en:6
00:30:21.000 : en:7
00:35:34.000 : en:8
00:39:32.000 : en:9
00:46:10.000 : en:10
00:53:48.000 : en:11
01:03:18.000 : en:12
01:08:38.000 : en:13
01:13:44.000 : en:14
01:21:44.000 : en:15
01:28:08.000 : en:16
01:32:29.000 : en:17
01:38:48.000 : en:18
01:42:04.000 : en:19



Скриншоты:
[+] Всего файлов в раздаче - 1:
Intimnie.prikluchenij.2008.WEB-DLRip-AVC.ExKinoRay.mkv1.29 GB

Похожие раздачи по запросу - интимные:
2021-01-14 U Интимные приключения / A l'aventure (2008) WEB-DLRip | P2 748.16 MB ↑ 97 ↓ 32
2021-01-14 U Интимные приключения / A l'aventure (2008) WEB-DLRip | P2 1.37 GB ↑ 26 ↓ 17

Отзывы
Зарегистрируйтесь чтобы добавить комментарий.
Загрузите программу
  uTorrent.exe
Обратная связь
Copyleft ©