↑↓torrent.by
Поиск
Логин: Регистрация
Пароль: Восстановить пароль

Академия монстров / Escuela de Miedo / Cranston Academy: Monster Zone (2020) BDRemux 1080p от селезень | iTunes

Скачать akademiya-monstrov-escuela-de-miedo-cranston-academy-monster-zone-2020-bdremux-1080p-ot-selezen-itunes.torrent
U Магнитная ссылка Размер: 17.28 GB Раздают: 46 Качают: 32 Добавлен: 2021-01-14 14:29:24
Академия монстров / Escuela de Miedo / Cranston Academy: Monster Zone (2020) BDRemux 1080p от селезень | iTunes

Название: Академия монстров
Оригинальное название: Escuela de Miedo / Cranston Academy: Monster Zone
Год выхода: 2020
Жанр: Мультфильм, семейный, приключения, полнометражный
Режиссер: Леопольдо Агилар
В ролях: Джейми Белл, Джейссолит, Руби Роуз

О фильме: Школьнику Дэнни живется несладко: он не может подружиться с одноклассниками и не находит общего языка с преподавателями. И всему виной его гениальность. Но однажды он попадает в школу для одаренных детей, где случайно открывает портал в мир... монстров.

Страна: Мексика
Студия: Anima Estudios, ReDefine
Продолжительность: 01:25:15
Перевод: Дублированный | iTunes

Качество: BDRemux 1080p
Видео: MPEG-4 AVC, 1920x1080, 24.7 Mbit/s, 23.976 fps
Аудио #01: 48 kHz, AC3, 5.1, 384 Kbps | iTunes | RUS |
Аудио #02: 48 kHz, DTS-HD MA, 5.1, 3931 Kbps | Оригинал | SPA |
Субтитры: Английские

Релиз: Присоединяйся к:


[+] MI
General
Unique ID                   : 54920693213856580341147966639920594549 (0x2951573C398ACBD8D2A17228FDC73E75)
Complete name               : E:VideoFirstCranston.Academy.Monster.Zone.2020.BDREMUX.1080p.seleZen.mkv
Format                      : Matroska
Format version              : Version 4
File size                   : 17.3 GiB
Duration                    : 1 h 25 min
Overall bit rate mode       : Variable
Overall bit rate            : 29.0 Mb/s
Movie name                  : Cranston Academy Monster Zone 2020 from seleZen
Encoded date                : UTC 2021-01-14 02:32:53
Writing application         : mkvmerge v40.0.0 ('Old Town Road + Pony') 64-bit
Writing library             : libebml v1.3.9 + libmatroska v1.5.2

Video
ID                          : 1
Format                      : AVC
Format/Info                 : Advanced Video Codec
Format profile              : High@L4.1
Format settings             : CABAC / 4 Ref Frames
Format settings, CABAC      : Yes
Format settings, Reference  : 4 frames
Codec ID                    : V_MPEG4/ISO/AVC
Duration                    : 1 h 25 min
Bit rate mode               : Variable
Bit rate                    : 24.7 Mb/s
Maximum bit rate            : 30.0 Mb/s
Width                       : 1 920 pixels
Height                      : 1 080 pixels
Display aspect ratio        : 16:9
Frame rate mode             : Constant
Frame rate                  : 23.976 (24000/1001) FPS
Color space                 : YUV
Chroma subsampling          : 4:2:0
Bit depth                   : 8 bits
Scan type                   : Progressive
Bits/(Pixel*Frame)          : 0.497
Stream size                 : 14.7 GiB (85%)
Language                    : English
Default                     : Yes
Forced                      : No
Color range                 : Limited
Color primaries             : BT.709
Transfer characteristics    : BT.709
Matrix coefficients         : BT.709

Audio #1
ID                          : 2
Format                      : AC-3
Format/Info                 : Audio Coding 3
Commercial name             : Dolby Digital
Codec ID                    : A_AC3
Duration                    : 1 h 25 min
Bit rate mode               : Constant
Bit rate                    : 384 kb/s
Channel(s)                  : 6 channels
Channel layout              : L R C LFE Ls Rs
Sampling rate               : 48.0 kHz
Frame rate                  : 31.250 FPS (1536 SPF)
Compression mode            : Lossy
Stream size                 : 234 MiB (1%)
Title                       : iTunes
Language                    : Russian
Service kind                : Complete Main
Default                     : Yes
Forced                      : Yes

Audio #2
ID                          : 3
Format                      : DTS XLL
Format/Info                 : Digital Theater Systems
Commercial name             : DTS-HD Master Audio
Codec ID                    : A_DTS
Duration                    : 1 h 25 min
Bit rate mode               : Variable
Bit rate                    : 3 931 kb/s
Channel(s)                  : 6 channels
Channel layout              : C L R Ls Rs LFE
Sampling rate               : 48.0 kHz
Frame rate                  : 93.750 FPS (512 SPF)
Bit depth                   : 24 bits
Compression mode            : Lossless
Stream size                 : 2.34 GiB (14%)
Title                       : Original
Language                    : Spanish
Default                     : No
Forced                      : No

Text
ID                          : 4
Format                      : UTF-8
Codec ID                    : S_TEXT/UTF8
Codec ID/Info               : UTF-8 Plain Text
Duration                    : 1 h 17 min
Bit rate                    : 55 b/s
Count of elements           : 1124
Stream size                 : 31.4 KiB (0%)
Title                       : Full
Language                    : English
Default                     : No
Forced                      : No

Menu
00:00:00.000                : es:Глава 01
00:08:15.662                : es:Глава 02
00:15:26.926                : es:Глава 03
00:21:39.840                : es:Глава 04
00:30:10.267                : es:Глава 05
00:39:03.633                : es:Глава 06
00:45:45.076                : es:Глава 07
00:51:32.381                : es:Глава 08
00:57:48.632                : es:Глава 09
01:02:32.749                : es:Глава 10
01:08:46.497                : es:Глава 11
01:16:16.197                : es:Глава 12



Скриншоты:
[+] Всего файлов в раздаче - 1:
Cranston.Academy.Monster.Zone.2020.BDREMUX.1080p.seleZen.mkv17.28 GB

Показать еще раздачи по запросу академия:
2021-01-17 U Академия монстров / Escuela de Miedo / Cranston Academy: Monster Zone (2020) HDRip-AVC от MediaBit | iTunes 2.05 GB ↑ 43 ↓ 11
2021-01-14 U Академия монстров / Escuela de Miedo / Cranston Academy: Monster Zone (2020) BDRip от MegaPeer | iTunes 1К745.82 MB ↑ 85 ↓ 17
2021-01-14 U Академия монстров / Escuela de Miedo / Cranston Academy: Monster Zone (2020) BDRip от MegaPeer | iTunes 1.42 GB ↑ 205 ↓ 64
2021-01-14 U Академия монстров / Escuela de Miedo / Cranston Academy: Monster Zone (2020) BDRip 1080p от селезень | iTunes 5.85 GB ↑ 34 ↓ 49
2021-01-14 U Академия монстров / Escuela de Miedo / Cranston Academy: Monster Zone (2020) BDRip 720p от селезень | iTunes 3.41 GB ↑ 48 ↓ 38
2020-04-15 U Сексуальная академия музыки & Эротика Звезда - Тантра любви - чувственный массаж, эротические моменты, Тантрическая музыка (2020) MP3 526.92 MB ↑ 195 ↓ 61
2014-01-20 U «Академия здоровья» О. А. Бутакова. (2010) PDF 50.01 MB ↑ 737 ↓ 24

Отзывы
Зарегистрируйтесь чтобы добавить комментарий.
Загрузите программу
  uTorrent.exe
Обратная связь
Copyleft ©