↑↓torrent.by
Поиск
Логин: Регистрация
Пароль: Восстановить пароль

Дорогие товарищи! (2020) WEB-DLRip-AVC от Files-х | iTunes

Скачать dorogie-tovarischi-2020-web-dlrip-avc-ot-files-h-itunes.torrent
U Магнитная ссылка Размер: 2.03 GB Раздают: 226 Качают: 26 Добавлен: 2021-01-15 05:04:31
Дорогие товарищи! (2020) WEB-DLRip-AVC от Files-х | iTunes

Название: Дорогие товарищи!
Год выпуска: 2020
Жанр:  Драма, история
Выпущено: Россия, Продюсерский центр Андрея Кончаловского
Режиссер: Андрей Кончаловский
В ролях: Юлия Высоцкая, Сергей Эрлиш, Юлия Бурова, Андрей Гусев, Владислав Комаров, Дмитрий Костяев, Иван Мартынов, Вячеслав Пигарев, Анатолий Петрунин, Артём Крысин

О фильме: 1962 год, в советском Новочеркасске — забастовка на главном городском заводе, люди требуют снижения цен на продукты и повышения зарплат. Когда к забастовке присоединяются рабочие других предприятий, правительственная комиссия решает ввести в город армию, и через считанные часы на улицах звучат выстрелы боевыми патронами. Работница парткома Людмила искренне верит в то, что строит коммунистическое общество и возмущается поведением заводских смутьянов. Но когда в бойне на площади без вести пропадает её дочь-подросток, стройная картина мира убежденной коммунистки рушится в одночасье.

Страна: Россия
Студия: Продюсерский центр Андрея Кончаловского
Продолжительность: 02:00:29
Перевод: Не требуется | iTunes

Файл
Кодек: h.264
Качество: WEB-DLRip-AVC
Видео: MPEG-4 AVC, ~ 2044 Кбит/с, 768x576, 24 кадр/с
Аудио: AC3, 6 ch, 384 Кбит/с
Язык: Русский
Субтитры: Нет

Релиз:


[+] MediaInfo:

General
Unique ID                                : 248714785826993859563783569104492060755 (0xBB1CB9B16DE7DDD898C9E6F267046053)
Complete name                            : F:Dorogie Tovarishchi.(2019).WEB-DLRip.(AVC).by.Серый1779.Files-x.mkv
Format                                   : Matroska
Format version                           : Version 2
File size                                : 2.03 GiB
Duration                                 : 2 h 0 min
Overall bit rate                         : 2 416 kb/s
Encoded date                             : UTC 2021-01-14 10:37:30
Writing application                      : mkvmerge v7.8.0 ('River Man') 32bit built on Apr  3 2015 12:11:22
Writing library                          : libebml v1.3.1 + libmatroska v1.4.2

Video
ID                                       : 1
Format                                   : AVC
Format/Info                              : Advanced Video Codec
Format profile                           : High@L4.1
Format settings                          : CABAC / 10 Ref Frames
Format settings, CABAC                   : Yes
Format settings, RefFrames               : 10 frames
Codec ID                                 : V_MPEG4/ISO/AVC
Duration                                 : 2 h 0 min
Bit rate                                 : 2 044 kb/s
Width                                    : 768 pixels
Height                                   : 576 pixels
Display aspect ratio                     : 4:3
Frame rate mode                          : Constant
Frame rate                               : 24.000 FPS
Color space                              : YUV
Chroma subsampling                       : 4:2:0
Bit depth                                : 8 bits
Scan type                                : Progressive
Bits/(Pixel*Frame)                       : 0.193
Stream size                              : 1.67 GiB (82%)
Writing library                          : x264 core 146 r2538 121396c
Encoding settings                        : cabac=1 / ref=10 / deblock=1:-2:-1 / analyse=0x3:0x133 / me=umh / subme=11 / psy=1 / psy_rd=1.00:0.08 / mixed_ref=1 / me_range=32 / chroma_me=1 / trellis=2 / 8x8dct=1 / cqm=0 / deadzone=21,11 / fast_pskip=0 / chroma_qp_offset=-3 / threads=18 / lookahead_threads=4 / sliced_threads=0 / nr=0 / decimate=1 / interlaced=0 / bluray_compat=0 / constrained_intra=0 / bframes=11 / b_pyramid=2 / b_adapt=2 / b_bias=0 / direct=1 / weightb=1 / open_gop=0 / weightp=2 / keyint=250 / keyint_min=23 / scenecut=40 / intra_refresh=0 / rc=2pass / mbtree=0 / bitrate=2044 / ratetol=1.0 / qcomp=0.60 / qpmin=0 / qpmax=69 / qpstep=4 / cplxblur=20.0 / qblur=0.5 / ip_ratio=1.40 / pb_ratio=1.30 / aq=2:1.00
Default                                  : Yes
Forced                                   : No
Color range                              : Limited
Color primaries                          : BT.709
Transfer characteristics                 : BT.709
Matrix coefficients                      : BT.709

Audio
ID                                       : 2
Format                                   : AC-3
Format/Info                              : Audio Coding 3
Format settings, Endianness              : Big
Codec ID                                 : A_AC3
Duration                                 : 2 h 0 min
Bit rate mode                            : Constant
Bit rate                                 : 384 kb/s
Channel(s)                               : 6 channels
Channel positions                        : Front: L C R, Side: L R, LFE
Sampling rate                            : 48.0 kHz
Frame rate                               : 31.250 FPS (1536 SPF)
Bit depth                                : 16 bits
Compression mode                         : Lossy
Stream size                              : 331 MiB (16%)
Service kind                             : Complete Main
Default                                  : Yes
Forced                                   : No




Скриншоты:
[+] Всего файлов в раздаче - 1:
Dorogie Tovarishchi.(2019).WEB-DLRip.(AVC).by.Серый1779.Files-x.mkv2.03 GB

Похожие раздачи по запросу - дорогие:
2021-01-14 U Дорогие товарищи! (2020) WEB-DLRip от ExKinoRay | iTunes 1К746.20 MB ↑ 190 ↓ 49
2021-01-14 U Дорогие товарищи! (2020) WEB-DLRip от Files-x | iTunes 2.06 GB ↑ 359 ↓ 103
2021-01-14 U Дорогие товарищи! (2020) WEB-DLRip | iTunes 1К1.46 GB ↑ 727 ↓ 246
2021-01-14 U Дорогие товарищи! (2020) WEB-DL 1080p | iTunes 4.34 GB ↑ 391 ↓ 188

Отзывы
Зарегистрируйтесь чтобы добавить комментарий.
Загрузите программу
  uTorrent.exe
Обратная связь
Copyleft ©