↑↓torrent.by
Поиск
Логин: Регистрация
Пароль: Восстановить пароль

Дебошир / The Brawler (2018) WEB-DL 1080p от ELEKTRI4KA | iTunes

Скачать deboshir-the-brawler-2018-web-dl-1080p-ot-elektri4ka-itunes.torrent
U Магнитная ссылка Размер: 3.54 GB Раздают: 42 Качают: 16 Добавлен: 2021-01-15 05:05:09
Дебошир / The Brawler (2018) WEB-DL 1080p от ELEKTRI4KA | iTunes

Название: Дебошир
Оригинальное название: The Brawler
Год выхода: 2018
Жанр: драма, мелодрама, криминал, биография, история, спорт
Режиссер: Кен Кушнер
В ролях: Зэк Макгоун, Эми Смарт, Джо Пантольяно, Тэрин Мэннинг, Джейсон Джеймс Рихтер, Энтони Мангано, Роберт Клохесси, Артур Л. Бернштейн, Джозеф Д’Онофрио, Джозеф Р. Ганнасколи

О фильме: Легендарный боксер Чак Уэпнер начинал с самых низов и однажды оказался на одном ринге с самим Мухаммедом Али. Его невероятная жизнь состояла из американских горок: череды крутых взлетов и жестоких падений. Он поднимался из грязи, чтобы побеждать на ринге, а потом снова падал в нее отдавшись во власть выпивки. Бокс, женщины, победы и поражения в истории легенды.

Выпущено: США
Страна: JARS Productions, Safier Entertainment, Aloe Entertainment
Продолжительность: 01:34:52
Озвучивание: Дублированный | iTunes

Файл
Формат: MKV
Качество: WEB-DL 1080p
Видео: MPEG-4 AVC, 4566 Kbit/s, 1920x796, 23.976 fps
Аудио: 48 kHz, AC3 Dolby Digital, 3/2 (L, C, R, l, r) + LFE ch, ~384 kbps
Субтитры: Нет
Дополнительно: Сохранены оригинальные чаптеры.

Релиз: &


[+] MediaInfo:
Deboshir.2018.1080p.WEB-DL.ELEKTRI4KA.UNIONGANG.mkv
Format : Matroska
Format version : Version 4 / Version 2
File size : 3.54 GiB
Duration : 1 h 34 min
Overall bit rate : 5 336 kb/s
Movie name : .ELEKTRI4KA.UNIONGANG.
Encoded date : UTC 2021-01-14 15:37:37
Writing application : mkvmerge v8.3.0 ('Over the Horizon') 64bit
Writing library : libebml v1.3.1 + libmatroska v1.4.2

Video
ID : 1
Format : AVC
Format/Info : Advanced Video Codec
Format profile : High@L4
Format settings, CABAC : Yes
Format settings, Reference frames : 5 frames
Codec ID : V_MPEG4/ISO/AVC
Duration : 1 h 34 min
Bit rate : 4 566 kb/s
Width : 1 920 pixels
Height : 796 pixels
Display aspect ratio : 2.40:1
Frame rate mode : Constant
Frame rate : 23.976 (24000/1001) FPS
Color space : YUV
Chroma subsampling : 4:2:0
Bit depth : 8 bits
Scan type : Progressive
Bits/(Pixel*Frame) : 0.125
Stream size : 3.03 GiB (86%)
Title : .ELEKTRI4KA.UNIONGANG.
Language : English
Default : Yes
Forced : No
Color range : Limited
Color primaries : BT.709
Transfer characteristics : BT.709
Matrix coefficients : BT.709

Audio #1
ID : 2
Format : AC-3
Format/Info : Audio Coding 3
Mode extension : CM (complete main)
Format settings, Endianness : Big
Codec ID : A_AC3
Duration : 1 h 34 min
Bit rate mode : Constant
Bit rate : 384 kb/s
Channel(s) : 6 channels
Channel positions : Front: L C R, Side: L R, LFE
Sampling rate : 48.0 kHz
Frame rate : 31.250 FPS (1536 spf)
Bit depth : 16 bits
Compression mode : Lossy
Delay relative to video : -42 ms
Stream size : 260 MiB (7%)
Title : DUB (ITUNES)
Language : Russian
Default : Yes
Forced : Yes

Audio #2
ID : 3
Format : AC-3
Format/Info : Audio Coding 3
Mode extension : CM (complete main)
Format settings, Endianness : Big
Codec ID : A_AC3
Duration : 1 h 34 min
Bit rate mode : Constant
Bit rate : 384 kb/s
Channel(s) : 6 channels
Channel positions : Front: L C R, Side: L R, LFE
Sampling rate : 48.0 kHz
Frame rate : 31.250 FPS (1536 spf)
Bit depth : 16 bits
Compression mode : Lossy
Delay relative to video : -42 ms
Stream size : 261 MiB (7%)
Title : Original
Language : English
Default : No
Forced : No

Menu
00:00:00.000 : en:1
00:20:32.148 : en:2
00:42:19.497 : en:3
01:03:16.170 : en:4
01:31:41.875 : en:5



Скриншоты:
[+] Всего файлов в раздаче - 1:
Deboshir.2018.1080p.WEB-DL.ELEKTRI4KA.UNIONGANG.mkv3.54 GB

Похожие раздачи по запросу - дебошир:
2021-01-15 U Дебошир / The Brawler (2018) WEB-DLRip от ELEKTRI4KA | iTunes 1.46 GB ↑ 48 ↓ 22

Отзывы
Зарегистрируйтесь чтобы добавить комментарий.
Загрузите программу
  uTorrent.exe
Обратная связь
Copyleft ©