↑↓torrent.by
Поиск
Логин: Регистрация
Пароль: Восстановить пароль

Женский взгляд (2020) WEBRip-AVC от Files-х

Скачать zhenskiy-vzglyad-2020-webrip-avc-ot-files-h.torrent
U Магнитная ссылка Размер: 1.46 GB Раздают: 134 Качают: 36 Добавлен: 2021-01-15 15:16:03
Женский взгляд (2020) WEBRip-AVC от Files-х

Оригинальное название: Женский взгляд
Год выпуска: 2020
Жанр:  Драма
Режиссер: Павла Стратулат, Анна Денисова, Юлия Аксенова, Наталья Кирстен
В ролях: Елена Морозова, Ирина Вербицкая, Олег Соколов, Алексей Розин, Александр Числов, Юлия Волкова, Клавдия Коршунова, Виктор Химич и др.

О фильме: Чувственная антология из пяти короткометражных новелл, которые поставили молодые женщины-режиссеры с собственным уникальным видением. Каждая из историй по-своему рассматривает разные стороны жизни современных женщин, погружаясь в их проблемы и переживания. Новелла «Родная душа» рассказывает о любовном свидании проститутки с майором, а в «Марджандже» родные сестры ищут способы прийти к взаимопониманию. Герои новеллы «Рай Шредингера» отчаянно ищут свое Я, и на помощь к ним приходит воля случая. В «Номере» главная героиня осознает фальшь своих отношений с лучшей подругой и остро предчувствует уходящую молодость, а в «Наблюдателе» герои встречают настоящую родную душу и обретают истинное счастье.

Страна: Россия
Студия: Мастерская Павла Луганова
Продолжительность: 01:23:09

Файл
Кодек: h.264
Качество: WEBRip-AVC
Видео: MPEG-4 AVC, ~ 2313 Кбит/с, 1024x384, 25 кадр/с
Аудио: AC3, 2 ch, 192 Кбит/с
Язык: Русский
Субтитры: Нет

Релиз:
[+] MediaInfo:

General
Unique ID                                : 206457802311133809804838153599036027048 (0x9B52538D233B8EBD86C8C7D12C71F0A8)
Complete name                            : F:Женский взгляд.(2021).WEBRip.(AVC).by.Серый1779.Files-x.mkv
Format                                   : Matroska
Format version                           : Version 2
File size                                : 1.46 GiB
Duration                                 : 1 h 23 min
Overall bit rate                         : 2 506 kb/s
Encoded date                             : UTC 2021-01-15 00:49:38
Writing application                      : mkvmerge v7.8.0 ('River Man') 32bit built on Apr  3 2015 12:11:22
Writing library                          : libebml v1.3.1 + libmatroska v1.4.2

Video
ID                                       : 1
Format                                   : AVC
Format/Info                              : Advanced Video Codec
Format profile                           : High@L4.1
Format settings                          : CABAC / 9 Ref Frames
Format settings, CABAC                   : Yes
Format settings, RefFrames               : 9 frames
Codec ID                                 : V_MPEG4/ISO/AVC
Duration                                 : 1 h 23 min
Bit rate                                 : 2 313 kb/s
Width                                    : 1 024 pixels
Height                                   : 384 pixels
Display aspect ratio                     : 2.667
Frame rate mode                          : Constant
Frame rate                               : 25.000 FPS
Color space                              : YUV
Chroma subsampling                       : 4:2:0
Bit depth                                : 8 bits
Scan type                                : Progressive
Bits/(Pixel*Frame)                       : 0.235
Stream size                              : 1.32 GiB (90%)
Writing library                          : x264 core 146 r2538 121396c
Encoding settings                        : cabac=1 / ref=9 / deblock=1:-2:-1 / analyse=0x3:0x133 / me=umh / subme=9 / psy=1 / psy_rd=1.00:0.15 / mixed_ref=1 / me_range=32 / chroma_me=1 / trellis=2 / 8x8dct=1 / cqm=0 / deadzone=21,11 / fast_pskip=0 / chroma_qp_offset=-3 / threads=18 / lookahead_threads=3 / sliced_threads=0 / nr=0 / decimate=1 / interlaced=0 / bluray_compat=0 / constrained_intra=0 / bframes=9 / b_pyramid=2 / b_adapt=2 / b_bias=0 / direct=3 / weightb=1 / open_gop=0 / weightp=2 / keyint=250 / keyint_min=25 / scenecut=40 / intra_refresh=0 / rc=2pass / mbtree=0 / bitrate=2313 / ratetol=1.0 / qcomp=0.60 / qpmin=0 / qpmax=69 / qpstep=4 / cplxblur=20.0 / qblur=0.5 / ip_ratio=1.40 / pb_ratio=1.30 / aq=2:1.00
Default                                  : Yes
Forced                                   : No
Color range                              : Limited
Color primaries                          : BT.709
Transfer characteristics                 : BT.709
Matrix coefficients                      : BT.709

Audio
ID                                       : 2
Format                                   : AC-3
Format/Info                              : Audio Coding 3
Format settings, Endianness              : Big
Codec ID                                 : A_AC3
Duration                                 : 1 h 23 min
Bit rate mode                            : Constant
Bit rate                                 : 192 kb/s
Channel(s)                               : 2 channels
Channel positions                        : Front: L R
Sampling rate                            : 48.0 kHz
Frame rate                               : 31.250 FPS (1536 SPF)
Bit depth                                : 16 bits
Compression mode                         : Lossy
Stream size                              : 114 MiB (8%)
Service kind                             : Complete Main
Default                                  : Yes
Forced                                   : No




Скриншоты:
[+] Всего файлов в раздаче - 1:
Женский взгляд.(2021).WEBRip.(AVC).by.Серый1779.Files-x.mkv1.46 GB

Похожие раздачи по запросу - женский:
2021-01-15 U Женский взгляд (2020) WEB-DLRip от Files-x 1.37 GB ↑ 34 ↓ 24
2020-12-13 U Женский стендап [эфир от 12.12] (2020) WEBRip 1080p 1.52 GB ↑ 168 ↓ 35
2020-12-13 U Женский стендап / Stand Up [02х01-12] (2020) SATRip 7.33 GB ↑ 126 ↓ 515
2020-12-06 U Женский стендап [эфир от 05.12] (2020) WEBRip 1080p 1.52 GB ↑ 79 ↓ 34
2020-11-30 U Женский стендап [эфир от 28.11] (2020) WEBRip 1080p 1.52 GB ↑ 50 ↓ 7
2020-04-12 U Женский Стендап [01-12] (2020) WEB-DL 720p от Files-x 12.81 GB ↑ 208 ↓ 772

Отзывы
Зарегистрируйтесь чтобы добавить комментарий.
Загрузите программу
  uTorrent.exe
Обратная связь
Copyleft ©