↑↓torrent.by
Поиск
Логин: Регистрация
Пароль: Восстановить пароль

#c училища (2020) WEBRip 720p

Скачать c_uchilischa-2020-webrip-720p.torrent
U Магнитная ссылка Размер: 2.11 GB Раздают: 225 Качают: 72 Добавлен: 2021-01-16 08:49:24
#c_училища (2020) WEBRip 720p

Название: #c_училища
Год выхода: 2020
Жанр: Драма
Режиссер: Анна Саянная
В ролях: Анастасия Куимова, Василий Михайлов, Иван Макаревич, Антон Момот, Александр Числов, Елена Морозова

О фильме:
Юная студентка Танька из рабочего района влюбляется в преподавателя – интеллигентного Сережу, мечтающего уехать в Москву от серости провинциального города. Сережа поздно понимает, что за девушка перед ним, и что его мечтам уже не суждено сбыться.

Страна: Россия
Продолжительность: 01:35:00
Язык: Русский
Примечание: Без рекламы. 18+

Файл
Формат: MKV
Качество: WEBRip 720p
Видео: MPEG-4 AVC, 2926 Кбит/с, 1280х720
Звук: AC3, 2 ch, 192 Кбит/с


[+] MI
Общее
Уникальный идентификатор                 : 214280155927902236492032897743390158519 (0xA134DB5C6B4074CD8E6534F7D25EAEB7)
Полное имя                               : D:#c_училища.2021.WEB-DL 720p.mkv
Формат                                   : Matroska
Версия формата                           : Version 2
Размер файла                             : 2,11 Гбайт
Продолжительность                        : 1 ч. 34 м.
Режим общего битрейта                    : Переменный
Общий поток                              : 3 181 Кбит/сек
Дата кодирования                         : UTC 2021-01-15 18:31:07
Программа кодирования                    : mkvmerge v7.8.0 ('River Man') 32bit built on Apr  3 2015 12:11:22
Библиотека кодирования                   : libebml v1.3.1 + libmatroska v1.4.2

Видео
Идентификатор                            : 1
Формат                                   : AVC
Формат/Информация                        : Advanced Video Codec
Профиль формата                          : High@L3.1
Настройки формата                        : CABAC / 1 Ref Frames
Параметр CABAC формата                   : Да
Параметр RefFrames формата               : 1 кадр
Параметр GOP формата                     : M=1, N=48
Идентификатор кодека                     : V_MPEG4/ISO/AVC
Продолжительность                        : 1 ч. 34 м.
Вид битрейта                             : Переменный
Битрейт                                  : 2 926 Кбит/сек
Максимальный битрейт                     : 3 000 Кбит/сек
Ширина                                   : 1 280 пикселей
Высота                                   : 720 пикселей
Соотношение сторон                       : 16:9
Режим частоты кадров                     : Постоянный
Частота кадров                           : 24,000 кадра/сек
Цветовое пространство                    : YUV
Субдискретизация насыщенности            : 4:2:0
Битовая глубина                          : 8 бит
Тип развёртки                            : Прогрессивная
Бит/(Пиксели*Кадры)                      : 0.132
Размер потока                            : 1,94 Гбайт (92%)
Default                                  : Да
Forced                                   : Нет

Аудио
Идентификатор                            : 2
Формат                                   : AC-3
Формат/Информация                        : Audio Coding 3
Коммерческое название                    : Dolby Digital
Идентификатор кодека                     : A_AC3
Продолжительность                        : 1 ч. 34 м.
Вид битрейта                             : Постоянный
Битрейт                                  : 192 Кбит/сек
Каналы                                   : 2 канала
Channel layout                           : L R
Частота                                  : 44,1 КГц
Частота кадров                           : 28,711 кадров/сек (1536 SPF)
Метод сжатия                             : С потерями
Размер потока                            : 130 Мбайт (6%)
Service kind                             : Complete Main
Default                                  : Да
Forced                                   : Нет



Скриншоты:
[+] Всего файлов в раздаче - 1:
#c_училища.2021.WEB-DL 720p.mkv2.11 GB

Похожие раздачи по запросу - училища:
2021-01-18 U #c училища (2020) WEBRip от Files-x 1.46 GB ↑ 88 ↓ 9
2021-01-16 U #c училища (2020) WEBRip-AVC от MediaBit 1.45 GB ↑ 158 ↓ 44
2021-01-16 U #c училища (2020) WEBRip от ELEKTRI4KA 1.37 GB ↑ 261 ↓ 121
2021-01-16 U #c училища (2020) WEBRip 1080p 3.18 GB ↑ 318 ↓ 149

Отзывы
Зарегистрируйтесь чтобы добавить комментарий.
Загрузите программу
  uTorrent.exe
Обратная связь
Copyleft ©