↑↓torrent.by
Поиск
Логин: Регистрация
Пароль: Восстановить пароль

Пустой человек / The Empty Man (2020) WEB-DL 1080p | L2

Скачать pustoy-chelovek-the-empty-man-2020-web-dl-1080p-l2.torrent
U Магнитная ссылка Размер: 8.34 GB Раздают: 125 Качают: 59 Добавлен: 2021-01-16 08:49:52
Пустой человек / The Empty Man (2020) WEB-DL 1080p | L2

Название: Пустой человек
Оригинальное название: The Empty Man
Год выхода: 2020
Жанр: Детектив, ужасы
Режиссер: Дэвид Прайор
В ролях: Джеймс Бэдж Дэйл, Стивен Рут, Джоэл Кортни, Марин Айрлэнд, Раснит Каур, Аарон Пул, Роберт Арамайо, Саманта Логан, Эван Йоникит, Адам Фергюсон, Роберт Коуттс, Роберт Ли Дэвис, Коннер Даудс, Джессика Маттен, Рон Кэнада

О фильме:
В 1995 году, путешествуя по горам Бутана, один из четырёх американских туристов провалился в странную пещеру и как будто впал в оцепенение. Судьба его товарищей была печальна. В 2018 году в штате Миссури бывший полицейский Джеймс Ласомбра, тяжело переживающий гибель жены и маленького сына, берётся разыскивать пропавшую старшеклассницу Аманду. Он выясняет, что недавно она в компании друзей исполнила на мосту ритуал, якобы призывающий Пустого человека. Никто в эту городскую легенду не верит, но вскоре Джеймс обнаруживает тела друзей Аманды под тем самым мостом, а сама девушка оказывается как-то связана с загадочной организацией.

Страна: США, ЮАР, Великобритания
Студия: Boom! Studios, Out of Africa Entertainment
Продолжительность: 02:16:53
Перевод: Любительский двухголосый | Колобок | by Shpando!nkleTV
*** Присутствует ненормативная лексика!

Файл
Кодек: x.264
Качество: WEB-DL 1080p | AMZN
Видео: MPEG-4 AVC, 7885 Kбит/с, 1920x1080, 23.976 кадр/с
Аудио #1: Русский (АС3, 2 ch, 192 Кбит/с, 48.0 KHz) Любительский (двухголосый, закадровый) Колобок
Аудио #2: Английский (E-АС3, 6 ch, 640 Кбит/с, 48.0 KHz)
Субтитры: английские
► Без Рекламы!
[url=https://youtu.be/tk6u9X1bW30" target="_blank">Трейлер |


[+] MediaInfo
Источник: The.Empty.Man.2020.1080p.AMZN.WEB-DL.DDP5.1.x264-NOGRP
General
Unique ID                      : 208794337765744792170766358407690333327 (0x9D1453A4B7F0897681F32A5EAC6C2C8F)
Complete name                  : The.Empty.Man.2020.AMZN.WEB-DL.1080p.mkv
Format                         : Matroska
Format version                 : Version 4
File size                      : 8.34 GiB
Duration                       : 2 h 16 min
Overall bit rate               : 8 720 kb/s
Encoded date                   : UTC 2021-01-15 13:09:58
Writing application            : mkvmerge v7.1.0 ('Good Love') 64bit built on Jul 27 2014 13:06:55
Writing library                : libebml v1.3.0 + libmatroska v1.4.1

Video
ID                             : 1
Format                         : AVC
Format/Info                    : Advanced Video Codec
Format profile                 : High@L4
Format settings                : CABAC / 4 Ref Frames
Format settings, CABAC         : Yes
Format settings, Reference fra : 4 frames
Codec ID                       : V_MPEG4/ISO/AVC
Duration                       : 2 h 16 min
Bit rate mode                  : Constant
Bit rate                       : 7 885 kb/s
Nominal bit rate               : 10 000 kb/s
Width                          : 1 920 pixels
Height                         : 1 080 pixels
Display aspect ratio           : 16:9
Frame rate mode                : Constant
Frame rate                     : 23.976 (24000/1001) FPS
Color space                    : YUV
Chroma subsampling             : 4:2:0
Bit depth                      : 8 bits
Scan type                      : Progressive
Bits/(Pixel*Frame)             : 0.159
Stream size                    : 7.54 GiB (90%)
Language                       : English
Default                        : Yes
Forced                         : No
Color range                    : Limited
Color primaries                : BT.709
Transfer characteristics       : BT.709
Matrix coefficients            : BT.709

Audio #1
ID                             : 2
Format                         : AC-3
Format/Info                    : Audio Coding 3
Commercial name                : Dolby Digital
Codec ID                       : A_AC3
Duration                       : 2 h 16 min
Bit rate mode                  : Constant
Bit rate                       : 192 kb/s
Channel(s)                     : 2 channels
Channel layout                 : L R
Sampling rate                  : 48.0 kHz
Frame rate                     : 31.250 FPS (1536 SPF)
Compression mode               : Lossy
Stream size                    : 188 MiB (2%)
Title                          : Колобок
Language                       : Russian
Service kind                   : Complete Main
Default                        : Yes
Forced                         : No

Audio #2
ID                             : 3
Format                         : E-AC-3
Format/Info                    : Enhanced AC-3
Commercial name                : Dolby Digital Plus
Codec ID                       : A_EAC3
Duration                       : 2 h 16 min
Bit rate mode                  : Constant
Bit rate                       : 640 kb/s
Channel(s)                     : 6 channels
Channel layout                 : L R C LFE Ls Rs
Sampling rate                  : 48.0 kHz
Frame rate                     : 31.250 FPS (1536 SPF)
Compression mode               : Lossy
Stream size                    : 627 MiB (7%)
Language                       : English
Service kind                   : Complete Main
Default                        : No
Forced                         : No

Text
ID                             : 4
Format                         : UTF-8
Codec ID                       : S_TEXT/UTF8
Codec ID/Info                  : UTF-8 Plain Text
Duration                       : 2 h 8 min
Bit rate                       : 32 b/s
Count of elements              : 1167
Stream size                    : 30.3 KiB (0%)
Language                       : English
Default                        : No
Forced                         : No



Скриншоты:
[+] Всего файлов в раздаче - 1:
The.Empty.Man.2020.AMZN.WEB-DL.1080p.mkv8.34 GB

Похожие раздачи по запросу - пустой:
2021-02-04 U Пустой человек / The Empty Man (2020) WEB-DLRip от MegaPeer | iTunes 1.46 GB ↑ 91 ↓ 66

Отзывы
Зарегистрируйтесь чтобы добавить комментарий.
Загрузите программу
  uTorrent.exe
Обратная связь
Copyleft ©