↑↓torrent.by
Поиск
Логин: Регистрация
Пароль: Восстановить пароль

Реальные пацаны против зомби (2020) WEBRip 1080p от ELEKTRI4KA

Скачать realnye-pacany-protiv-zombi-2020-webrip-1080p-ot-elektri4ka.torrent
U Магнитная ссылка Размер: 2.84 GB Раздают: 330 Качают: 339 Добавлен: 2021-01-16 16:33:31
Реальные пацаны против зомби (2020) WEBRip 1080p от ELEKTRI4KA

Название: Реальные пацаны против зомби
Год выхода: 2020
Жанр: Комедия, фантастика
Режиссер: Жанна Кадникова
В ролях: Николай Наумов, Зоя Бербер, Валентина Мазунина, Станислав Тляшев, Марина Федункив, Игорь Ознобихин, Владимир Селиванов, Армен Бежанян, Мария Скорницкая, Алексей Базанов

О фильме:
В Пермь завезли древний коми-пермяцкий вирус, который постепенно превращает жителей в зомби. Спустя год город оцеплен военными, учёные пытаются найти вакцину. Самолёты скидывают продовольствие. Но герои, как и остальные жители Перми, приспособились к новой реальности. Они живут обычной жизнью: ходят в кафе, занимаются бизнесом, строят планы на будущее и пытаются своими силами очистить город от зомби. Всё налаживается, пока в один из обычных постапокалиптических дней не кусают Леру.

Страна: Россия
Студия: Good Story Media, ТНТ
Продолжительность: 01:27:11
Язык: Русский
Примечание: Без рекламы

Файл
Формат: MKV
Качество: WEBRip 1080p
Видео: MPEG-4 AVC, 4500 Кбит/с, 1920x800
Звук: AC3, 2 ch, 192 Кбит/с
Субтитры: Отсутствуют

Релиз: &


[+] MI
Complete name                            : Realnyie.patsanyi.protiv.zombi.2020.WEB-DL.1080p.ELEKTRI4KA.UNIONGANG.mkv
Format                                   : Matroska
Format version                           : Version 4 / Version 2
File size                                : 2.84 GiB
Duration                                 : 1 h 27 min
Overall bit rate mode                    : Variable
Overall bit rate                         : 4 670 kb/s
Movie name                               : .ELEKTRI4KA.UNIONGANG.
Encoded date                             : UTC 2021-01-16 12:38:09
Writing application                      : mkvmerge v8.3.0 ('Over the Horizon') 64bit
Writing library                          : libebml v1.3.1 + libmatroska v1.4.2

Video
ID                                       : 1
Format                                   : AVC
Format/Info                              : Advanced Video Codec
Format profile                           : High@L4
Format settings, CABAC                   : Yes
Format settings, Reference frames        : 1 frame
Format settings, GOP                     : M=1, N=50
Codec ID                                 : V_MPEG4/ISO/AVC
Duration                                 : 1 h 27 min
Bit rate mode                            : Variable
Bit rate                                 : 4 500 kb/s
Width                                    : 1 920 pixels
Height                                   : 800 pixels
Display aspect ratio                     : 2.40:1
Frame rate mode                          : Constant
Frame rate                               : 25.000 FPS
Color space                              : YUV
Chroma subsampling                       : 4:2:0
Bit depth                                : 8 bits
Scan type                                : Progressive
Bits/(Pixel*Frame)                       : 0.117
Stream size                              : 2.73 GiB (96%)
Default                                  : Yes
Forced                                   : No

Audio
ID                                       : 2
Format                                   : AC-3
Format/Info                              : Audio Coding 3
Mode extension                           : CM (complete main)
Format settings, Endianness              : Big
Codec ID                                 : A_AC3
Duration                                 : 1 h 27 min
Bit rate mode                            : Constant
Bit rate                                 : 192 kb/s
Channel(s)                               : 2 channels
Channel positions                        : Front: L R
Sampling rate                            : 44.1 kHz
Frame rate                               : 28.711 FPS (1536 spf)
Bit depth                                : 16 bits
Compression mode                         : Lossy
Stream size                              : 120 MiB (4%)
Language                                 : Russian
Default                                  : Yes
Forced                                   : No



Скриншоты:
[+] Всего файлов в раздаче - 1:
Realnyie.patsanyi.protiv.zombi.2020.WEB-DL.1080p.ELEKTRI4KA.UNIONGANG.mkv2.84 GB

Похожие раздачи по запросу - реальные:
2021-01-18 U Реальные пацаны против зомби (2020) WEBRip от Generalfilm | КПК 331.20 MB ↑ 70 ↓ 6
2021-01-17 U Реальные пацаны против зомби (2020) WEBRip-AVC от ExKinoRay 1К744.81 MB ↑ 225 ↓ 52
2021-01-17 U Реальные пацаны против зомби (2020) WEBRip от Files-x 1.37 GB ↑ 68 ↓ 33
2021-01-17 U Реальные пацаны против зомби (2020) WEBRip-AVC от Files-х 1.46 GB ↑ 112 ↓ 31
2021-01-17 U Реальные пацаны против зомби (2020) WEBRip 720p 1.93 GB ↑ 182 ↓ 18
2021-01-16 U Реальные пацаны против зомби (2020) WEBRip от ELEKTRI4KA 1К1.37 GB ↑ 120 ↓ 203

Отзывы
Зарегистрируйтесь чтобы добавить комментарий.
Загрузите программу
  uTorrent.exe
Обратная связь
Copyleft ©