↑↓torrent.by
Поиск
Логин: Регистрация
Пароль: Восстановить пароль

#c училища (2020) WEBRip-AVC от MediaBit

Скачать c_uchilischa-2020-webrip-avc-ot-mediabit.torrent
U Магнитная ссылка Размер: 1.45 GB Раздают: 160 Качают: 44 Добавлен: 2021-01-16 16:33:51
#c_училища (2020) WEBRip-AVC от MediaBit

#c_училища




Информация о фильме:
Название:  #c_училища
Год выхода: 2019
Жанр: драма
Режиссер:  Анна Саянная
В ролях:   Анастасия Куимова, Василий Михайлов, Иван Макаревич, Антон Момот, Александр Числов, Елена Морозова

Описание:   Юная студентка Танька из рабочего района влюбляется в преподавателя – интеллигентного Сережу, мечтающего уехать в Москву от серости провинциального города. Сережа поздно понимает, что за девушка перед ним, и что его мечтам уже не суждено сбыться.
 

Страна:  Россия  
Примечание:  18+
Продолжительность:  01:35:00
Перевод:   Русский

Кодек: AVC
Формат: MKV
Качество: WEBRip-AVC
Видео: MPEG-4 AVC, 1024x576, 24.000 fps, 1996 kbps
Аудио RU:  AC3, 2 ch, 48 kHz, 192 kbps  

Релиз: &  &


[+] MediaInfo
x264 info: frame I:685   Avg QP:14.48  size: 55190 [url=/tag/5/][/url]
x264 info: frame P:39078 Avg QP:17.94  size: 20349 [url=/tag/5/][/url]
x264 info: frame B:96934 Avg QP:19.81  size:  6045 [url=/tag/5/][/url]
x264 info: consecutive B-frames:  5.6%  5.5% 17.3% 27.3% 25.2% 17.4%  1.3%  0.1%  0.0%  0.0%  0.0%  0.0%  0.1% [url=/tag/5/][/url]
[url=/tag/5/][/url]
General [url=/tag/5/][/url]
Unique ID                                : 309065948498956689825204501283540941129 (0xE883EFBE7E797FB9F80EE487A375B949) [url=/tag/5/][/url]
Complete name                            : D:uTorrentРипы_от_wolf1245_MediaBit#c_училища.2020.WEBRip-AVC_wolf1245_MediaBit.mkv [url=/tag/5/][/url]
Format                                   : Matroska [url=/tag/5/][/url]
Format version                           : Version 4 [url=/tag/5/][/url]
File size                                : 1.45 GiB [url=/tag/5/][/url]
Duration                                 : 1 h 34 min [url=/tag/5/][/url]
Overall bit rate                         : 2 187 kb/s [url=/tag/5/][/url]
Movie name                               : #c_училища.2020.WEBRip-AVC_wolf1245_MediaBit [url=/tag/5/][/url]
Encoded date                             : UTC 2021-01-16 09:34:28 [url=/tag/5/][/url]
Writing application                      : mkvmerge v52.0.0 ('Secret For The Mad') 64-bit [url=/tag/5/][/url]
Writing library                          : libebml v1.4.1 + libmatroska v1.6.2 [url=/tag/5/][/url]
[url=/tag/5/][/url]
Video [url=/tag/5/][/url]
ID                                       : 1 [url=/tag/5/][/url]
Format                                   : AVC [url=/tag/5/][/url]
Format/Info                              : Advanced Video Codec [url=/tag/5/][/url]
Format profile                           : High@L4.1 [url=/tag/5/][/url]
Format settings                          : CABAC / 12 Ref Frames [url=/tag/5/][/url]
Format settings, CABAC                   : Yes [url=/tag/5/][/url]
Format settings, Reference frames        : 12 frames [url=/tag/5/][/url]
Codec ID                                 : V_MPEG4/ISO/AVC [url=/tag/5/][/url]
Duration                                 : 1 h 34 min [url=/tag/5/][/url]
Bit rate                                 : 1 996 kb/s [url=/tag/5/][/url]
Width                                    : 1 024 pixels [url=/tag/5/][/url]
Height                                   : 576 pixels [url=/tag/5/][/url]
Display aspect ratio                     : 16:9 [url=/tag/5/][/url]
Frame rate mode                          : Constant [url=/tag/5/][/url]
Frame rate                               : 24.000 FPS [url=/tag/5/][/url]
Color space                              : YUV [url=/tag/5/][/url]
Chroma subsampling                       : 4:2:0 [url=/tag/5/][/url]
Bit depth                                : 8 bits [url=/tag/5/][/url]
Scan type                                : Progressive [url=/tag/5/][/url]
Bits/(Pixel*Frame)                       : 0.141 [url=/tag/5/][/url]
Stream size                              : 1.32 GiB (91%) [url=/tag/5/][/url]
Title                                    : wolf1245_MediaBit [url=/tag/5/][/url]
Writing library                          : x264 core 157 r2958 57baac4 [url=/tag/5/][/url]
Encoding settings                        : cabac=1 / ref=12 / deblock=1:-3:-3 / analyse=0x3:0x133 / me=umh / subme=11 / psy=1 / psy_rd=1.05:0.05 / mixed_ref=1 / me_range=48 / chroma_me=1 / trellis=2 / 8x8dct=1 / cqm=0 / deadzone=21,11 / fast_pskip=0 / chroma_qp_offset=-3 / threads=10 / lookahead_threads=2 / sliced_threads=0 / nr=0 / decimate=0 / interlaced=0 / bluray_compat=0 / constrained_intra=0 / bframes=12 / b_pyramid=2 / b_adapt=2 / b_bias=0 / direct=3 / weightb=1 / open_gop=0 / weightp=2 / keyint=240 / keyint_min=24 / scenecut=40 / intra_refresh=0 / rc_lookahead=60 / rc=2pass / mbtree=0 / bitrate=1996 / ratetol=1.0 / qcomp=0.60 / qpmin=0 / qpmax=69 / qpstep=4 / cplxblur=20.0 / qblur=0.5 / vbv_maxrate=50000 / vbv_bufsize=62500 / nal_hrd=none / filler=0 / ip_ratio=1.40 / pb_ratio=1.30 / aq=1:0.80 [url=/tag/5/][/url]
Language                                 : Russian [url=/tag/5/][/url]
Default                                  : Yes [url=/tag/5/][/url]
Forced                                   : No [url=/tag/5/][/url]
[url=/tag/5/][/url]
Audio [url=/tag/5/][/url]
ID                                       : 2 [url=/tag/5/][/url]
Format                                   : AC-3 [url=/tag/5/][/url]
Format/Info                              : Audio Coding 3 [url=/tag/5/][/url]
Commercial name                          : Dolby Digital [url=/tag/5/][/url]
Codec ID                                 : A_AC3 [url=/tag/5/][/url]
Duration                                 : 1 h 34 min [url=/tag/5/][/url]
Bit rate mode                            : Constant [url=/tag/5/][/url]
Bit rate                                 : 192 kb/s [url=/tag/5/][/url]
Channel(s)                               : 2 channels [url=/tag/5/][/url]
Channel layout                           : L R [url=/tag/5/][/url]
Sampling rate                            : 44.1 kHz [url=/tag/5/][/url]
Frame rate                               : 28.711 FPS (1536 SPF) [url=/tag/5/][/url]
Compression mode                         : Lossy [url=/tag/5/][/url]
Stream size                              : 130 MiB (9%) [url=/tag/5/][/url]
Title                                    : RUS [url=/tag/5/][/url]
Language                                 : Russian [url=/tag/5/][/url]
Service kind                             : Complete Main [url=/tag/5/][/url]
Default                                  : Yes [url=/tag/5/][/url]
Forced                                   : No [url=/tag/5/][/url]
[url=/tag/5/][/url]



Скриншоты:
[+] Всего файлов в раздаче - 1:
c_училища.2020.WEBRip-AVC_wolf1245_MediaBit.mkv1.45 GB

Похожие раздачи по запросу - училища:
2021-01-18 U #c училища (2020) WEBRip от Files-x 1.46 GB ↑ 91 ↓ 9
2021-01-16 U #c училища (2020) WEBRip 720p 2.11 GB ↑ 231 ↓ 72
2021-01-16 U #c училища (2020) WEBRip от ELEKTRI4KA 1.37 GB ↑ 264 ↓ 121
2021-01-16 U #c училища (2020) WEBRip 1080p 3.18 GB ↑ 318 ↓ 149

Отзывы
Зарегистрируйтесь чтобы добавить комментарий.
Загрузите программу
  uTorrent.exe
Обратная связь
Copyleft ©