↑↓torrent.by
Поиск
Логин: Регистрация
Пароль: Восстановить пароль

Разочарование / Disenchantment [S03] (2021) WEBRip 1080p | Пифагор

Скачать razocharovanie-disenchantment-s03-2021-webrip-1080p-pifagor.torrent
U Магнитная ссылка Размер: 9.94 GB Раздают: 154 Качают: 60 Добавлен: 2021-01-17 04:18:15
Разочарование / Disenchantment [S03] (2021) WEBRip 1080p | Пифагор

Название: Разочарование
Оригинальное название: Disenchantment
Год выхода: 2021
Жанр: мультфильм, фэнтези, комедия, приключения
Режиссер: Ира Шерак, Уэсли Арчер, Дэвид Д.
В ролях: Эбби Джейкобсон, Нат Факсон, Эрик Андре, Джэйни Баттен, Мэтт Берри, Джон Ди Маджио, Ноэль Филдинг, Рич Фулчер, Дэвид Херман, Морис ЛаМарш

О фильме:
Действие разворачивается в Средневековье в королевстве Дримландия, где живёт юная принцесса-алкоголичка Бин. Отказавшись выходить замуж, Бин отправляется в путешествие по стране в компании эльфа и демона. По дороге трио встретит множество фантастических тварей и дураков людского происхождения.

Страна: США
Продолжительность: 10x~30:00
Перевод: Профессиональный (дублированный) Пифагор

Кодек: MKV
Качество: WEBRip 1080p
Видео: AVC, 1920x1080 (16:9), 4493 kbps (0.090 b/px), 23.976 fps
Звук:
Аудио #1: AC3, 384 kbps (CBR), 48.0 KHz (16 bits), 6 ch, Russian
Аудио #2: E-AC3, 640 kbps (CBR), 48.0 KHz, 6 ch, English
Субтитры: Russian, English

РЕКЛАМЫ НЕТ


[+] MediaInfo

[code]General
Unique ID                                : 105266378565855874143687241415257551707 (0x4F31912AF4EF909A8F087C38DD78F35B)
Complete name                            : D:фильмы и сериалыDisenchantment.S02.1080p.WEB-DL.DUBDisenchantment.S02E01.1080p.WEB.H264.mkv
Format                                   : Matroska
Format version                           : Version 4 / Version 2
File size                                : 1.22 GiB
Duration                                 : 30mn 54s
Overall bit rate mode                    : Variable
Overall bit rate                         : 5 629 Kbps
Encoded date                             : UTC 2021-01-15 14:20:54
Writing application                      : mkvmerge v25.0.0 ('Prog Noir') 64-bit
Writing library                          : libebml v1.3.6 + libmatroska v1.4.9
DURATION                                 : 00:30:54.752000000
NUMBER_OF_FRAMES                         : 57961
NUMBER_OF_BYTES                          : 89028096
_STATISTICS_WRITING_APP                  : mkvmerge v25.0.0 ('Prog Noir') 64-bit
_STATISTICS_WRITING_DATE_UTC             : 2021-01-15 14:20:54
_STATISTICS_TAGS                         : BPS DURATION NUMBER_OF_FRAMES NUMBER_OF_BYTES

Video
ID                                       : 1
Format                                   : AVC
Format/Info                              : Advanced Video Codec
Format profile                           : Main@L4.0
Format settings, CABAC                   : Yes
Format settings, ReFrames                : 3 frames
Codec ID                                 : V_MPEG4/ISO/AVC
Duration                                 : 30mn 54s
Bit rate mode                            : Variable
Bit rate                                 : 4 493 Kbps
Nominal bit rate                         : 4 870 Kbps
Maximum bit rate                         : 7 305 Kbps
Width                                    : 1 920 pixels
Height                                   : 1 080 pixels
Display aspect ratio                     : 16:9
Frame rate mode                          : Constant
Frame rate                               : 23.976 fps
Color space                              : YUV
Chroma subsampling                       : 4:2:0
Bit depth                                : 8 bits
Scan type                                : Progressive
Bits/(Pixel*Frame)                       : 0.090
Stream size                              : 994 MiB (80%)
Writing library                          : x264 core 148 r2722 1b0121b
Encoding settings                        : cabac=1 / ref=3 / deblock=1:0:0 / analyse=0x1:0x111 / me=umh / subme=10 / psy=1 / psy_rd=1.00:0.00 / mixed_ref=1 / me_range=24 / chroma_me=1 / trellis=2 / 8x8dct=0 / cqm=0 / deadzone=21,11 / fast_pskip=1 / chroma_qp_offset=-2 / threads=6 / lookahead_threads=1 / sliced_threads=0 / nr=0 / decimate=1 / interlaced=0 / bluray_compat=0 / stitchable=1 / constrained_intra=0 / bframes=2 / b_pyramid=0 / b_adapt=2 / b_bias=0 / direct=3 / weightb=1 / open_gop=0 / weightp=2 / keyint=250 / keyint_min=23 / scenecut=0 / intra_refresh=0 / rc_lookahead=48 / rc=2pass / mbtree=1 / bitrate=4870 / ratetol=1.0 / qcomp=0.50 / qpmin=6 / qpmax=51 / qpstep=4 / cplxblur=20.0 / qblur=0.5 / vbv_maxrate=7305 / vbv_bufsize=9740 / nal_hrd=vbr / filler=0 / ip_ratio=1.40 / aq=1:1.00
Language                                 : English
Default                                  : Yes
Forced                                   : No
DURATION                                 : 00:30:54.752000000
NUMBER_OF_FRAMES                         : 57961
NUMBER_OF_BYTES                          : 148380160
_STATISTICS_WRITING_APP                  : mkvmerge v25.0.0 ('Prog Noir') 64-bit
_STATISTICS_WRITING_DATE_UTC             : 2021-01-15 14:20:54
_STATISTICS_TAGS                         : BPS DURATION NUMBER_OF_FRAMES NUMBER_OF_BYTES

Audio #1
ID                                       : 2
Format                                   : AC-3
Format/Info                              : Audio Coding 3
Mode extension                           : CM (complete main)
Format settings, Endianness              : Big
Codec ID                                 : A_AC3
Duration                                 : 30mn 54s
Bit rate mode                            : Constant
Bit rate                                 : 384 Kbps
Channel(s)                               : 6 channels
Channel positions                        : Front: L C R, Side: L R, LFE
Sampling rate                            : 48.0 KHz
Bit depth                                : 16 bits
Compression mode                         : Lossy
Stream size                              : 84.9 MiB (7%)
Language                                 : Russian
Default                                  : No
Forced                                   : No

Audio #2
ID                                       : 3
Format                                   : E-AC-3
Format/Info                              : Audio Coding 3
Format settings, Endianness              : Big
Codec ID                                 : A_EAC3
Duration                                 : 30mn 54s
Bit rate mode                            : Constant
Bit rate                                 : 640 Kbps
Channel(s)                               : 6 channels
Channel positions                        : Front: L C R, Side: L R, LFE
Sampling rate                            : 48.0 KHz
Compression mode                         : Lossy
Stream size                              : 142 MiB (11%)
Language                                 : English
Default                                  : Yes
Forced                                   : No

Text #1
ID                                       : 4
Format                                   : UTF-8
Codec ID                                 : S_TEXT/UTF8
Codec ID/Info                            : UTF-8 Plain Text
Title                                    : Russian
Language                                 : Russian
Default                                  : No
Forced                                   : No

Text #2
ID                                       : 5
Format                                   : UTF-8
Codec ID                                 : S_TEXT/UTF8
Codec ID/Info                            : UTF-8 Plain Text
Title                                    : English (SDH)
Language                                 : English
Default                                  : No
Forced                                   : No[/code]



Скриншоты:
[+] Всего файлов в раздаче - 10:
Disenchantment.S02E01.1080p.WEB.H264.mkv1.22 GB
Disenchantment.S02E02.1080p.WEB.H264.mkv873.13 MB
Disenchantment.S02E03.1080p.WEB.H264.mkv1.15 GB
Disenchantment.S02E04.1080p.WEB.H264.mkv1.19 GB
Disenchantment.S02E05.1080p.WEB.H264.mkv1,000.74 MB
Disenchantment.S02E06.1080p.WEB.H264.mkv848.72 MB
Disenchantment.S02E07.1080p.WEB.H264.mkv785.43 MB
Disenchantment.S02E08.1080p.WEB.H264.mkv972.61 MB
Disenchantment.S02E09.1080p.WEB.H264.mkv799.78 MB
Disenchantment.S02E10.1080p.WEB.H264.mkv1.23 GB

Похожие раздачи по запросу - разочарование:
2021-01-20 U Разочарование / Disenchantment [S03] (2021) WEBRip 720p | OMSKBIRD 5.72 GB ↑ 28 ↓ 9
2021-01-20 U Разочарование / Disenchantment [S01-03] (2018-2021) WEB-DLRip | Пифагор 10.42 GB ↑ 39 ↓ 39

Отзывы
Зарегистрируйтесь чтобы добавить комментарий.
Загрузите программу
  uTorrent.exe
Обратная связь
Copyleft ©