↑↓torrent.by
Поиск
Логин: Регистрация
Пароль: Восстановить пароль

Через тернии к звездам (1980) WEB-DLRip-AVC

Скачать cherez-ternii-k-zvezdam-1980-web-dlrip-avc.torrent
U Магнитная ссылка Размер: 2.03 GB Раздают: 72 Качают: 11 Добавлен: 2021-01-17 04:19:03
Через тернии к звездам (1980) WEB-DLRip-AVC

Название: Через тернии к звездам
Год выхода: 1980
Жанр: Фантастика
Режиссер: Ричард Викторов, Николай Викторов
В ролях: Елена Метелкина, Вадим Ледогоров, Уилдис Лиелдидж, Елена Фадеева, Вацлав Дворжецкий, Александр Лазарев, Надежда Семенцова, Игорь Ясулович, Глеб Стриженов, Борис Щербаков, Александр Михайлов, Николай Викторов

О фильме:XXIII век. В таинственных и малоизведанных глубинах Вселенной патрульный звездолет «Пушкин» обнаруживает космический корабль неизвестной землянам конструкции. Корабль мертв. Среди погибших инопланетян исследователи случайно обнаруживают искусственного человека - девушку Нийю, обладающую уникальными способностями - она может мгновенно перемещаться в пространстве, длительное время обходиться без воздуха, одним лишь мановением руки может отбрасывать от себя людей, и любые предметы...

Страна: СССР
Студия: Киностудия им. М. Горького, Третье творческое объединение
Продолжительность: 01:17:17 + 01:08:45
Перевод: Не требуется

Файл
Кодек: h.264
Качество: WEB-DLRip-AVC
Видео: MPEG-4 AVC, 1152x508, 24.000 fps, 1738 Кбит/с
Звук: AC3, 2 ch, 48.0 KHz, 192 Кбит/с
Субтитры: Нет

Релиз от: george$t


[+] Инфо файл

General
Unique ID : 220513717512843222067745273909589261581 (0xA5E565ACF92AF677A9FC07785A5B3D0D)
Complete name : Через тернии к звездам.1 серия.mkv
Format : Matroska
Format version : Version 2
File size : 1.06 GiB
Duration : 1 h 17 min
Overall bit rate : 1 969 kb/s
Encoded date : UTC 2020-12-10 19:31:57
Writing application : mkvmerge v7.8.0 ('River Man') 32bit built on Mar 27 2015 16:18:02
Writing library : libebml v1.3.1 + libmatroska v1.4.2

Video
ID : 1
Format : AVC
Format/Info : Advanced Video Codec
Format profile : High@L4.1
Format settings : CABAC / 12 Ref Frames
Format settings, CABAC : Yes
Format settings, ReFrames : 12 frames
Codec ID : V_MPEG4/ISO/AVC
Duration : 1 h 17 min
Bit rate : 1 738 kb/s
Width : 1 152 pixels
Height : 508 pixels
Display aspect ratio : 2.25:1
Frame rate mode : Constant
Frame rate : 24.000 FPS
Color space : YUV
Chroma subsampling : 4:2:0
Bit depth : 8 bits
Scan type : Progressive
Bits/(Pixel*Frame) : 0.124
Stream size : 961 MiB (88%)
Writing library : x264 core 157 r2867+103 0d6443f t_mod_Custom_2 [8-bit@all X86]
Encoding settings : cabac=1 / ref=12 / deblock=1:-2:-2 / analyse=0x3:0x133 / me=umh / subme=10 / psy=1 / fade_compensate=0.00 / psy_rd=1.00:0.12 / mixed_ref=1 / me_range=32 / chroma_me=1 / trellis=2 / 8x8dct=1 / cqm=0 / deadzone=21,11 / fast_pskip=1 / chroma_qp_offset=-3 / threads=12 / lookahead_threads=3 / sliced_threads=0 / nr=0 / decimate=1 / interlaced=0 / bluray_compat=0 / constrained_intra=0 / fgo=0 / bframes=12 / b_pyramid=2 / b_adapt=2 / b_bias=0 / direct=3 / weightb=1 / open_gop=0 / weightp=2 / keyint=250 / keyint_min=24 / scenecut=40 / intra_refresh=0 / rc_lookahead=60 / rc=crf / mbtree=0 / crf=18.5000 / qcomp=0.60 / qpmin=0:0:0 / qpmax=69:69:69 / qpstep=4 / vbv_maxrate=62500 / vbv_bufsize=78125 / crf_max=0.0 / nal_hrd=none / filler=0 / ip_ratio=1.40 / pb_ratio=1.30 / aq=2:0.80 / aq-sensitivity=10.00 / aq-factor=1.00:1.00:1.00 / aq2=0 / aq3=0
Language : Russian
Default : Yes
Forced : No
Color range : Limited
Color primaries : BT.709
Transfer characteristics : BT.709
Matrix coefficients : BT.709

Audio
ID : 2
Format : AC-3
Format/Info : Audio Coding 3
Codec ID : A_AC3
Duration : 1 h 17 min
Bit rate mode : Constant
Bit rate : 192 kb/s
Channel(s) : 2 channels
Channel positions : Front: L R
Sampling rate : 48.0 kHz
Frame rate : 31.250 FPS (1536 SPF)
Bit depth : 16 bits
Compression mode : Lossy
Stream size : 106 MiB (10%)
Language : Russian
Service kind : Complete Main
Default : Yes
Forced : No

General
Unique ID : 220946212522647337469230972085655469950 (0xA638B15373CADBD08D8297F3105A7F7E)
Complete name : Через тернии к звездам.2 серия.mkv
Format : Matroska
Format version : Version 2
File size : 987 MiB
Duration : 1 h 8 min
Overall bit rate : 2 006 kb/s
Encoded date : UTC 2020-12-12 13:12:55
Writing application : mkvmerge v7.8.0 ('River Man') 32bit built on Mar 27 2015 16:18:02
Writing library : libebml v1.3.1 + libmatroska v1.4.2

Video
ID : 1
Format : AVC
Format/Info : Advanced Video Codec
Format profile : High@L4.1
Format settings : CABAC / 12 Ref Frames
Format settings, CABAC : Yes
Format settings, ReFrames : 12 frames
Codec ID : V_MPEG4/ISO/AVC
Duration : 1 h 8 min
Bit rate : 1 774 kb/s
Width : 1 152 pixels
Height : 508 pixels
Display aspect ratio : 2.25:1
Frame rate mode : Constant
Frame rate : 24.000 FPS
Color space : YUV
Chroma subsampling : 4:2:0
Bit depth : 8 bits
Scan type : Progressive
Bits/(Pixel*Frame) : 0.126
Stream size : 873 MiB (88%)
Writing library : x264 core 157 r2867+103 0d6443f t_mod_Custom_2 [8-bit@all X86]
Encoding settings : cabac=1 / ref=12 / deblock=1:-2:-2 / analyse=0x3:0x133 / me=umh / subme=10 / psy=1 / fade_compensate=0.00 / psy_rd=1.00:0.15 / mixed_ref=1 / me_range=32 / chroma_me=1 / trellis=2 / 8x8dct=1 / cqm=0 / deadzone=21,11 / fast_pskip=1 / chroma_qp_offset=-3 / threads=12 / lookahead_threads=3 / sliced_threads=0 / nr=0 / decimate=1 / interlaced=0 / bluray_compat=0 / constrained_intra=0 / fgo=0 / bframes=13 / b_pyramid=2 / b_adapt=2 / b_bias=0 / direct=3 / weightb=1 / open_gop=0 / weightp=2 / keyint=250 / keyint_min=24 / scenecut=40 / intra_refresh=0 / rc_lookahead=60 / rc=crf / mbtree=0 / crf=18.4000 / qcomp=0.60 / qpmin=0:0:0 / qpmax=69:69:69 / qpstep=4 / vbv_maxrate=62500 / vbv_bufsize=78125 / crf_max=0.0 / nal_hrd=none / filler=0 / ip_ratio=1.40 / pb_ratio=1.30 / aq=2:0.80 / aq-sensitivity=10.00 / aq-factor=1.00:1.00:1.00 / aq2=0 / aq3=0
Language : Russian
Default : Yes
Forced : No
Color range : Limited
Color primaries : BT.709
Transfer characteristics : BT.709
Matrix coefficients : BT.709

Audio
ID : 2
Format : AC-3
Format/Info : Audio Coding 3
Codec ID : A_AC3
Duration : 1 h 8 min
Bit rate mode : Constant
Bit rate : 192 kb/s
Channel(s) : 2 channels
Channel positions : Front: L R
Sampling rate : 48.0 kHz
Frame rate : 31.250 FPS (1536 SPF)
Bit depth : 16 bits
Compression mode : Lossy
Stream size : 94.4 MiB (10%)
Language : Russian
Service kind : Complete Main
Default : Yes
Forced : No



Скриншоты:
[+] Всего файлов в раздаче - 2:
Через тернии к звездам.1 серия.mkv1.06 GB
Через тернии к звездам.2 серия.mkv986.71 MB

Похожие раздачи по запросу - через:
2019-02-27 U Человек-паук: Через вселенные / Spider-Man: Into the Spider-Verse (2018) WEB-DLRip от ExKinoRay | Line 1.46 GB ↑ 1301 ↓ 125

Отзывы
Зарегистрируйтесь чтобы добавить комментарий.
Загрузите программу
  uTorrent.exe
Обратная связь
Copyleft ©