↑↓torrent.by
Поиск
Логин: Регистрация
Пароль: Восстановить пароль

Академия монстров / Escuela de Miedo / Cranston Academy: Monster Zone (2020) HDRip-AVC от MediaBit | iTunes

Скачать akademiya-monstrov-escuela-de-miedo-cranston-academy-monster-zone-2020-hdrip-avc-ot-mediabit-itunes.torrent
U Магнитная ссылка Размер: 2.05 GB Раздают: 43 Качают: 11 Добавлен: 2021-01-17 04:19:42
Академия монстров / Escuela de Miedo / Cranston Academy: Monster Zone (2020) HDRip-AVC от MediaBit | iTunes

Академия монстров / Escuela de Miedo / Cranston Academy: Monster Zone




Информация о фильме:
Название:  Академия монстров
Оригинальное название:  Escuela de Miedo / Cranston Academy: Monster Zone
Год выхода: 2020
Жанр: Мультфильм, семейный, приключения, полнометражный
Режиссер:  Леопольдо Агилар
В ролях:   Джейми Белл, Джейссолит, Руби Роуз

Описание:   Школьнику Дэнни живется несладко: он не может подружиться с одноклассниками и не находит общего языка с преподавателями. И всему виной его гениальность. Но однажды он попадает в школу для одаренных детей, где случайно открывает портал в мир... монстров.
 
 

Страна:  Мексика
Студия:  Anima Estudios, ReDefine
Продолжительность:  01:25:08
Перевод:  Дублированный - iTunes

Кодек: AVC
Формат: MKV
Качество: HDRip-AVC
Видео: MPEG-4 AVC, 1024x442, 23.976 fps, 2613 kbps
Аудио RU:  48 kHz, AC3, 5.1, 384 Kbps  
Аудио EN:  48 kHz, AC3, 5.1, 448 Kbps  
Субтитры: Английские
Навигация по главам:  Да

Релиз: &  &


[+] MediaInfo
x264 info: frame I:1261  Avg QP:11.84  size: 94927 [url=/tag/7/][/url]
x264 info: frame P:34240 Avg QP:14.42  size: 24123 [url=/tag/7/][/url]
x264 info: frame B:86973 Avg QP:17.34  size:  8300 [url=/tag/7/][/url]
x264 info: consecutive B-frames:  7.3%  5.0% 11.4% 29.5% 14.6% 26.2%  2.7%  1.6%  0.8%  0.3%  0.1%  0.2%  0.3% [url=/tag/7/][/url]
[url=/tag/7/][/url]
General [url=/tag/7/][/url]
Unique ID                                : 26441513942771138084505028904618497443 (0x13E47349FD2ADA198F95A6C7AF2715A3) [url=/tag/7/][/url]
Complete name                            : D:uTorrentРипы_от_wolf1245_MediaBitCranston.Academy.Monster.Zone.2020.DUB.HDRip-AVC_wolf1245_MediaBit.mkv [url=/tag/7/][/url]
Format                                   : Matroska [url=/tag/7/][/url]
Format version                           : Version 4 [url=/tag/7/][/url]
File size                                : 2.05 GiB [url=/tag/7/][/url]
Duration                                 : 1 h 25 min [url=/tag/7/][/url]
Overall bit rate                         : 3 446 kb/s [url=/tag/7/][/url]
Movie name                               : Cranston.Academy.Monster.Zone.2020.DUB.HDRip-AVC_wolf1245_MediaBit [url=/tag/7/][/url]
Encoded date                             : UTC 2021-01-14 18:45:58 [url=/tag/7/][/url]
Writing application                      : mkvmerge v52.0.0 ('Secret For The Mad') 64-bit [url=/tag/7/][/url]
Writing library                          : libebml v1.4.1 + libmatroska v1.6.2 [url=/tag/7/][/url]
[url=/tag/7/][/url]
Video [url=/tag/7/][/url]
ID                                       : 1 [url=/tag/7/][/url]
Format                                   : AVC [url=/tag/7/][/url]
Format/Info                              : Advanced Video Codec [url=/tag/7/][/url]
Format profile                           : High@L4.1 [url=/tag/7/][/url]
Format settings                          : CABAC / 12 Ref Frames [url=/tag/7/][/url]
Format settings, CABAC                   : Yes [url=/tag/7/][/url]
Format settings, Reference frames        : 12 frames [url=/tag/7/][/url]
Codec ID                                 : V_MPEG4/ISO/AVC [url=/tag/7/][/url]
Duration                                 : 1 h 25 min [url=/tag/7/][/url]
Bit rate                                 : 2 613 kb/s [url=/tag/7/][/url]
Width                                    : 1 024 pixels [url=/tag/7/][/url]
Height                                   : 442 pixels [url=/tag/7/][/url]
Display aspect ratio                     : 2.35:1 [url=/tag/7/][/url]
Frame rate mode                          : Constant [url=/tag/7/][/url]
Frame rate                               : 23.976 (24000/1001) FPS [url=/tag/7/][/url]
Color space                              : YUV [url=/tag/7/][/url]
Chroma subsampling                       : 4:2:0 [url=/tag/7/][/url]
Bit depth                                : 8 bits [url=/tag/7/][/url]
Scan type                                : Progressive [url=/tag/7/][/url]
Bits/(Pixel*Frame)                       : 0.241 [url=/tag/7/][/url]
Stream size                              : 1.55 GiB (76%) [url=/tag/7/][/url]
Title                                    : _wolf1245_MediaBit [url=/tag/7/][/url]
Writing library                          : x264 core 157 r2958 57baac4 [url=/tag/7/][/url]
Encoding settings                        : cabac=1 / ref=12 / deblock=1:-3:-3 / analyse=0x3:0x133 / me=umh / subme=10 / psy=1 / psy_rd=1.05:0.05 / mixed_ref=1 / me_range=48 / chroma_me=1 / trellis=2 / 8x8dct=1 / cqm=0 / deadzone=21,11 / fast_pskip=0 / chroma_qp_offset=-3 / threads=10 / lookahead_threads=2 / sliced_threads=0 / nr=0 / decimate=0 / interlaced=0 / bluray_compat=0 / constrained_intra=0 / bframes=12 / b_pyramid=2 / b_adapt=2 / b_bias=0 / direct=3 / weightb=1 / open_gop=0 / weightp=2 / keyint=240 / keyint_min=24 / scenecut=40 / intra_refresh=0 / rc_lookahead=60 / rc=2pass / mbtree=0 / bitrate=2613 / ratetol=1.0 / qcomp=0.60 / qpmin=0 / qpmax=69 / qpstep=4 / cplxblur=20.0 / qblur=0.5 / vbv_maxrate=50000 / vbv_bufsize=62500 / nal_hrd=none / filler=0 / ip_ratio=1.40 / pb_ratio=1.30 / aq=1:0.80 [url=/tag/7/][/url]
Language                                 : English [url=/tag/7/][/url]
Default                                  : Yes [url=/tag/7/][/url]
Forced                                   : No [url=/tag/7/][/url]
Color range                              : Limited [url=/tag/7/][/url]
Color primaries                          : BT.709 [url=/tag/7/][/url]
Transfer characteristics                 : BT.709 [url=/tag/7/][/url]
Matrix coefficients                      : BT.709 [url=/tag/7/][/url]
[url=/tag/7/][/url]
Audio #1 [url=/tag/7/][/url]
ID                                       : 2 [url=/tag/7/][/url]
Format                                   : AC-3 [url=/tag/7/][/url]
Format/Info                              : Audio Coding 3 [url=/tag/7/][/url]
Commercial name                          : Dolby Digital [url=/tag/7/][/url]
Codec ID                                 : A_AC3 [url=/tag/7/][/url]
Duration                                 : 1 h 25 min [url=/tag/7/][/url]
Bit rate mode                            : Constant [url=/tag/7/][/url]
Bit rate                                 : 384 kb/s [url=/tag/7/][/url]
Channel(s)                               : 6 channels [url=/tag/7/][/url]
Channel layout                           : L R C LFE Ls Rs [url=/tag/7/][/url]
Sampling rate                            : 48.0 kHz [url=/tag/7/][/url]
Frame rate                               : 31.250 FPS (1536 SPF) [url=/tag/7/][/url]
Compression mode                         : Lossy [url=/tag/7/][/url]
Stream size                              : 234 MiB (11%) [url=/tag/7/][/url]
Title                                    : DUB | iTunes [url=/tag/7/][/url]
Language                                 : Russian [url=/tag/7/][/url]
Service kind                             : Complete Main [url=/tag/7/][/url]
Default                                  : Yes [url=/tag/7/][/url]
Forced                                   : No [url=/tag/7/][/url]
[url=/tag/7/][/url]
Audio #2 [url=/tag/7/][/url]
ID                                       : 3 [url=/tag/7/][/url]
Format                                   : AC-3 [url=/tag/7/][/url]
Format/Info                              : Audio Coding 3 [url=/tag/7/][/url]
Commercial name                          : Dolby Digital [url=/tag/7/][/url]
Codec ID                                 : A_AC3 [url=/tag/7/][/url]
Duration                                 : 1 h 25 min [url=/tag/7/][/url]
Bit rate mode                            : Constant [url=/tag/7/][/url]
Bit rate                                 : 448 kb/s [url=/tag/7/][/url]
Channel(s)                               : 6 channels [url=/tag/7/][/url]
Channel layout                           : L R C LFE Ls Rs [url=/tag/7/][/url]
Sampling rate                            : 48.0 kHz [url=/tag/7/][/url]
Frame rate                               : 31.250 FPS (1536 SPF) [url=/tag/7/][/url]
Compression mode                         : Lossy [url=/tag/7/][/url]
Stream size                              : 273 MiB (13%) [url=/tag/7/][/url]
Title                                    : Original [url=/tag/7/][/url]
Language                                 : English [url=/tag/7/][/url]
Service kind                             : Complete Main [url=/tag/7/][/url]
Default                                  : No [url=/tag/7/][/url]
Forced                                   : No [url=/tag/7/][/url]
[url=/tag/7/][/url]
Text [url=/tag/7/][/url]
ID                                       : 4 [url=/tag/7/][/url]
Format                                   : UTF-8 [url=/tag/7/][/url]
Codec ID                                 : S_TEXT/UTF8 [url=/tag/7/][/url]
Codec ID/Info                            : UTF-8 Plain Text [url=/tag/7/][/url]
Duration                                 : 1 h 17 min [url=/tag/7/][/url]
Bit rate                                 : 55 b/s [url=/tag/7/][/url]
Count of elements                        : 1124 [url=/tag/7/][/url]
Stream size                              : 31.4 KiB (0%) [url=/tag/7/][/url]
Title                                    : Full [url=/tag/7/][/url]
Language                                 : English [url=/tag/7/][/url]
Default                                  : No [url=/tag/7/][/url]
Forced                                   : No [url=/tag/7/][/url]
[url=/tag/7/][/url]
Menu [url=/tag/7/][/url]
00:00:00.000                             : :Kapitel 01 [url=/tag/7/][/url]
00:08:09.113                             : :Kapitel 02 [url=/tag/7/][/url]
00:15:20.377                             : :Kapitel 03 [url=/tag/7/][/url]
00:21:33.208                             : :Kapitel 04 [url=/tag/7/][/url]
00:30:08.348                             : :Kapitel 05 [url=/tag/7/][/url]
00:38:57.043                             : :Kapitel 06 [url=/tag/7/][/url]
00:44:04.016                             : :Kapitel 07 [url=/tag/7/][/url]
00:49:49.861                             : :Kapitel 08 [url=/tag/7/][/url]
00:55:30.660                             : :Kapitel 09 [url=/tag/7/][/url]
01:01:16.297                             : :Kapitel 10 [url=/tag/7/][/url]
01:09:28.831                             : :Kapitel 11 [url=/tag/7/][/url]
01:18:43.552                             : :Kapitel 12 [url=/tag/7/][/url]
[url=/tag/7/][/url]



Скриншоты:
[+] Всего файлов в раздаче - 1:
Cranston.Academy.Monster.Zone.2020.DUB.HDRip-AVC_wolf1245_MediaBit.mkv2.05 GB

Показать еще раздачи по запросу академия:
2021-01-14 U Академия монстров / Escuela de Miedo / Cranston Academy: Monster Zone (2020) BDRemux 1080p от селезень | iTunes 17.28 GB ↑ 46 ↓ 32
2021-01-14 U Академия монстров / Escuela de Miedo / Cranston Academy: Monster Zone (2020) BDRip от MegaPeer | iTunes 1К745.82 MB ↑ 85 ↓ 17
2021-01-14 U Академия монстров / Escuela de Miedo / Cranston Academy: Monster Zone (2020) BDRip от MegaPeer | iTunes 1.42 GB ↑ 205 ↓ 64
2021-01-14 U Академия монстров / Escuela de Miedo / Cranston Academy: Monster Zone (2020) BDRip 1080p от селезень | iTunes 5.85 GB ↑ 34 ↓ 49
2021-01-14 U Академия монстров / Escuela de Miedo / Cranston Academy: Monster Zone (2020) BDRip 720p от селезень | iTunes 3.41 GB ↑ 48 ↓ 38
2020-04-15 U Сексуальная академия музыки & Эротика Звезда - Тантра любви - чувственный массаж, эротические моменты, Тантрическая музыка (2020) MP3 526.92 MB ↑ 195 ↓ 61
2014-01-20 U «Академия здоровья» О. А. Бутакова. (2010) PDF 50.01 MB ↑ 737 ↓ 24

Отзывы
Зарегистрируйтесь чтобы добавить комментарий.
Загрузите программу
  uTorrent.exe
Обратная связь
Copyleft ©