↑↓torrent.by
Поиск
Логин: Регистрация
Пароль: Восстановить пароль

Бабоньки (2015) WEBRip-AVC от ExKinoRay

Скачать babonki-2015-webrip-avc-ot-exkinoray.torrent
U Магнитная ссылка Размер: 1.33 GB Раздают: 22 Качают: 15 Добавлен: 2021-01-17 04:20:23
Бабоньки (2015) WEBRip-AVC от ExKinoRay

Название: Бабоньки
Год выхода: 2015
Жанр:  Комедия
Режиссер: Антон Коваленко
В ролях: Елена Захарова, Ирина Серова, Алёна Галлиардт, Анна Воронова, Надежда Жарикова, Алексей Капитонов, Олеся Тимурова, Пётр Ступин, Влад Сташевский, Максим Пинскер, Сергей Барковский, Бесо Гатаев, Аслан Бижоев, Владимир Костин, Ирина Лазарева, Евгений Ткаченко, Тина Кузнецова

О фильме:
История из жизни глухих российских деревень. Туда, куда не добралась цивилизации, и где все еще процветает привозная торговля. В такой деревне живет и работает главная героиня Катя. Именно она рассказывает как живет цивилизация за пределами деревни, какие отношения у людей там, где большие города! Она добывает и привозит в деревню самые новые тренды и моду, рассказывает, как быть привлекательными друг для друга — и найти самое главное в жизни — взаимная любовь! Романтика, новые запахи, модные вещи — вдохновляют на подвиги (в прямом и переносном смысле) героинь фильма. Женщины — готовы на все, чтоб обрести свое женское счастье! Мечта всей Катиной жизни — Влад Сташевский! Похищение Влада Сташевского — генеральный план героинь комедии.

Страна: Россия
Студия: Медиа 77
Продолжительность: 01:28:29
Язык: Русский

Файл
Формат: MKV
Качество: WEBRip-AVC
Видео: MPEG-4 AVC, 1024x576, 1960 Кбит/с
Аудио:  AC3, 2 ch, 192 Кбит/с
Субтитры: Нет


[+] MI
Общее
Уникальный идентификатор : 158259721508484276511368445489883500486 (0x770FB6B2B51397C4EE704704B8B5CFC6)
Полное имя : D:MOVIESBabonbki.2015.WEBRip-AVC.ExKinoRay.mkv
Формат : Matroska
Версия формата : Version 4
Размер файла : 1,33 Гбайт
Продолжительность : 1 ч. 28 м.
Общий поток : 2 154 Кбит/сек
Дата кодирования : UTC 2021-01-16 05:31:54
Программа кодирования : mkvmerge v45.0.0 ('Heaven in Pennies') 64-bit
Библиотека кодирования : libebml v1.3.10 + libmatroska v1.5.2

Видео
Идентификатор : 1
Формат : AVC
Формат/Информация : Advanced Video Codec
Профиль формата : High@L4.1
Настройки формата : CABAC / 12 Ref Frames
Параметр CABAC формата : Да
Параметр RefFrames формата : 12 кадров
Идентификатор кодека : V_MPEG4/ISO/AVC
Продолжительность : 1 ч. 28 м.
Битрейт : 1 960 Кбит/сек
Ширина : 1 024 пикселя
Высота : 576 пикселей
Соотношение сторон : 16:9
Режим частоты кадров : Постоянный
Частота кадров : 25,000 кадров/сек
Цветовое пространство : YUV
Субдискретизация насыщенности : 4:2:0
Битовая глубина : 8 бит
Тип развёртки : Прогрессивная
Бит/(Пиксели*Кадры) : 0.133
Размер потока : 1,21 Гбайт (91%)
Библиотека кодирования : x264 core 160 r3000 33f9e14
Настройки программы : cabac=1 / ref=12 / deblock=1:-2:-2 / analyse=0x3:0x133 / me=umh / subme=10 / psy=1 / psy_rd=1.05:0.15 / mixed_ref=1 / me_range=32 / chroma_me=1 / trellis=2 / 8x8dct=1 / cqm=0 / deadzone=21,11 / fast_pskip=0 / chroma_qp_offset=-3 / threads=6 / lookahead_threads=1 / sliced_threads=0 / nr=0 / decimate=0 / interlaced=0 / bluray_compat=0 / constrained_intra=0 / bframes=12 / b_pyramid=2 / b_adapt=2 / b_bias=0 / direct=3 / weightb=1 / open_gop=0 / weightp=2 / keyint=250 / keyint_min=25 / scenecut=40 / intra_refresh=0 / rc=2pass / mbtree=0 / bitrate=1960 / ratetol=1.0 / qcomp=0.60 / qpmin=0 / qpmax=69 / qpstep=4 / cplxblur=20.0 / qblur=0.5 / ip_ratio=1.40 / pb_ratio=1.30 / aq=1:1.00
Язык : English
Default : Да
Forced : Нет
Цветовой диапазон : Limited
Основные цвета : BT.709
Характеристики трансфера : BT.709
Коэффициенты матрицы : BT.709

Аудио
Идентификатор : 2
Формат : AC-3
Формат/Информация : Audio Coding 3
Коммерческое название : Dolby Digital
Идентификатор кодека : A_AC3
Продолжительность : 1 ч. 28 м.
Вид битрейта : Постоянный
Битрейт : 192 Кбит/сек
Каналы : 2 канала
Channel layout : L R
Частота : 48,0 КГц
Частота кадров : 31,250 кадров/сек (1536 SPF)
Метод сжатия : С потерями
Размер потока : 122 Мбайт (9%)
Язык : Russian
Service kind : Complete Main
Default : Да
Forced : Нет



Скриншоты:
[+] Всего файлов в раздаче - 1:
Babonbki.2015.WEBRip-AVC.ExKinoRay.mkv1.33 GB

Отзывы
Зарегистрируйтесь чтобы добавить комментарий.
Загрузите программу
  uTorrent.exe
Обратная связь
Copyleft ©