↑↓torrent.by
Поиск
Логин: Регистрация
Пароль: Восстановить пароль

Прыг Скок в поисках сокровищ (2019) WEB-DL 1080p от ELEKTRI4KА | IVI

Скачать pryg-skok-v-poiskah-sokrovisch-2019-web-dl-1080p-ot-elektri4ka-ivi.torrent
U Магнитная ссылка Размер: 2.66 GB Раздают: 31 Качают: 8 Добавлен: 2021-01-17 04:20:36
Прыг Скок в поисках сокровищ (2019) WEB-DL 1080p от ELEKTRI4KА | IVI

Информация
Название: Прыг Скок в поисках сокровищ
Год выхода: 2019
Жанр: Мультфильм
Режиссер: Арман Бейсембаев
В ролях: Евгений Синчуков, Анастасия Гиренкова, Остап Петренко, Андрей Ланецкий, Петр Дмитриченко, Андрей Джеджула, Борис Георгиевский, Алена Узлюк, Екатерина Филатова

Описание:  Банда саранчи во главе с безжалостным Боссом орудует на лужайке старенького дома в поисках клада. У Босса есть лишь одна половина карты сокровищ, вторую находит мелкий аферист - кузнечик Скок. Скок решает договориться о сотрудничестве с Боссом, но в итоге лишается своей части карты.К Скоку присоединяется гусеница Болтуша и неотступно следует за ним. Всячески пытаясь от нее избавиться, Скок попадает в более крупные неприятности, в результате которых ему на голову сваливается еще и богомол по прозвищу Мозгоед. Троицу, преследуемую бандой саранчи, ожидают опасные приключения, связанные с поисками сокровищ.

Выпущено: Казахстан, Россия
Продолжительность: 01:09:26
Озвучивание: Оригинальное | IVI

Файл
Формат: MKV
Качество: WEB-DL 1080p
Видео: MPEG-4 AVC, 5120 Kb/s, 1920x1080
Аудио: Russian: 48 kHz, AC3 Dolby Digital, 3/2 (L, C, R, l, r) + LFE ch, ~384 Kbps
Субтитры: Нет
Дополнительно: Нет

Релиз: &


[+] MediaInfo:
Complete name : Pryig.Skok.v.poiskah.sokrovisch.2019.1080p.WEB-DL.ELEKTRI4KA.UNIONGANG.mkv
Format : Matroska
Format version : Version 4 / Version 2
File size : 2.66 GiB
Duration : 1 h 9 min
Overall bit rate : 5 493 kb/s
Movie name : .ELEKTRI4KA.UNIONGANG.
Encoded date : UTC 2021-01-14 18:38:33
Writing application : mkvmerge v8.3.0 ('Over the Horizon') 64bit
Writing library : libebml v1.3.1 + libmatroska v1.4.2

Video
ID : 1
Format : AVC
Format/Info : Advanced Video Codec
Format profile : High@L4
Format settings, CABAC : Yes
Format settings, Reference frames : 4 frames
Codec ID : V_MPEG4/ISO/AVC
Duration : 1 h 9 min
Bit rate : 5 120 kb/s
Width : 1 920 pixels
Height : 1 080 pixels
Display aspect ratio : 16:9
Frame rate mode : Constant
Frame rate : 25.000 FPS
Color space : YUV
Chroma subsampling : 4:2:0
Bit depth : 8 bits
Scan type : Progressive
Bits/(Pixel*Frame) : 0.099
Stream size : 2.48 GiB (93%)
Title : .ELEKTRI4KA.UNIONGANG.
Writing library : x264 core 148
Encoding settings : cabac=1 / ref=3 / deblock=1:0:0 / analyse=0x3:0x113 / me=hex / subme=7 / psy=1 / psy_rd=1.00:0.00 / mixed_ref=1 / me_range=16 / chroma_me=1 / trellis=1 / 8x8dct=1 / cqm=0 / deadzone=21, 11 / fast_pskip=1 / chroma_qp_offset=-2 / threads=34 / lookahead_threads=5 / sliced_threads=0 / nr=0 / decimate=1 / interlaced=0 / bluray_compat=0 / constrained_intra=0 / bframes=6 / b_pyramid=2 / b_adapt=1 / b_bias=0 / direct=1 / weightb=1 / open_gop=0 / weightp=2 / keyint=50 / keyint_min=26 / scenecut=0 / intra_refresh=0 / rc_lookahead=40 / rc=2pass / mbtree=1 / bitrate=5120 / ratetol=1.0 / qcomp=0.60 / qpmin=0 / qpmax=69 / qpstep=4 / cplxblur=20.0 / qblur=0.5 / vbv_maxrate=7680 / vbv_bufsize=20480 / nal_hrd=none / filler=0 / ip_ratio=1.40 / aq=1:1.00
Default : Yes
Forced : No

Audio
ID : 2
Format : AC-3
Format/Info : Audio Coding 3
Mode extension : CM (complete main)
Format settings, Endianness : Big
Codec ID : A_AC3
Duration : 1 h 9 min
Bit rate mode : Constant
Bit rate : 384 kb/s
Channel(s) : 6 channels
Channel positions : Front: L C R, Side: L R, LFE
Sampling rate : 48.0 kHz
Frame rate : 31.250 FPS (1536 spf)
Bit depth : 16 bits
Compression mode : Lossy
Stream size : 191 MiB (7%)
Title : Original (ivi)
Language : Russian
Default : Yes
Forced : No



Скриншоты:
[+] Всего файлов в раздаче - 1:
Pryig.Skok.v.poiskah.sokrovisch.2019.1080p.WEB-DL.ELEKTRI4KA.UNIONGANG.mkv2.66 GB

Похожие раздачи по запросу - прыг:
2021-01-17 U Прыг Скок в поисках сокровищ (2019) WEB-DLRip от ELEKTRI4KА | IVI 1.09 GB ↑ 25 ↓ 4

Отзывы
Зарегистрируйтесь чтобы добавить комментарий.
Загрузите программу
  uTorrent.exe
Обратная связь
Copyleft ©