↑↓torrent.by
Поиск
Логин: Регистрация
Пароль: Восстановить пароль

Реальные пацаны против зомби (2020) WEBRip-AVC от ExKinoRay

Скачать realnye-pacany-protiv-zombi-2020-webrip-avc-ot-exkinoray.torrent
U Магнитная ссылка Размер: 744.81 MB Раздают: 225 Качают: 52 Добавлен: 2021-01-17 18:23:01
Реальные пацаны против зомби (2020) WEBRip-AVC от ExKinoRay

Название: Реальные пацаны против зомби
Год выхода: 2020
Жанр:  Комедия, фантастика
Режиссер: Жанна Кадникова
В ролях: Николай Наумов, Зоя Бербер, Валентина Мазунина, Станислав Тляшев, Марина Федункив, Игорь Ознобихин, Владимир Селиванов, Армен Бежанян, Мария Скорницкая, Алексей Базанов

О фильме:
В Пермь завезли древний коми-пермяцкий вирус, который постепенно превращает жителей в зомби. Спустя год город оцеплен военными, учёные пытаются найти вакцину. Самолёты скидывают продовольствие. Но герои, как и остальные жители Перми, приспособились к новой реальности. Они живут обычной жизнью: ходят в кафе, занимаются бизнесом, строят планы на будущее и пытаются своими силами очистить город от зомби. Всё налаживается, пока в один из обычных постапокалиптических дней не кусают Леру.

Страна: Россия
Студия: Good Story Media, ТНТ
Продолжительность: 01:27:11
Язык: Русский

Файл
Формат: MKV
Качество: WEBRip-AVC
Видео: MPEG-4 AVC, 768x320, 1118 Кбит/с
Аудио:  AAC-HE, 2 ch, 76 Кбит/с
Субтитры: Нет


[+] MI
Общее
Уникальный идентификатор : 72203266861298049306789429920575749820 (0x3651D7E74C423E8C703A403C6B237EBC)
Полное имя : D:MOVIESReal.patsanyi.protiv.zombi.2020.WEBRip-AVC.ExKinoRay.mkv
Формат : Matroska
Версия формата : Version 4
Размер файла : 745 Мбайт
Продолжительность : 1 ч. 27 м.
Общий поток : 1 194 Кбит/сек
Дата кодирования : UTC 2021-01-17 08:17:30
Программа кодирования : mkvmerge v45.0.0 ('Heaven in Pennies') 64-bit
Библиотека кодирования : libebml v1.3.10 + libmatroska v1.5.2

Видео
Идентификатор : 1
Формат : AVC
Формат/Информация : Advanced Video Codec
Профиль формата : High@L4.1
Настройки формата : CABAC / 13 Ref Frames
Параметр CABAC формата : Да
Параметр RefFrames формата : 13 кадров
Идентификатор кодека : V_MPEG4/ISO/AVC
Продолжительность : 1 ч. 27 м.
Битрейт : 1 118 Кбит/сек
Ширина : 768 пикселей
Высота : 320 пикселей
Соотношение сторон : 2,40:1
Режим частоты кадров : Постоянный
Частота кадров : 25,000 кадров/сек
Цветовое пространство : YUV
Субдискретизация насыщенности : 4:2:0
Битовая глубина : 8 бит
Тип развёртки : Прогрессивная
Бит/(Пиксели*Кадры) : 0.182
Размер потока : 696 Мбайт (93%)
Библиотека кодирования : x264 core 160 r3000 33f9e14
Настройки программы : cabac=1 / ref=13 / deblock=1:-2:-2 / analyse=0x3:0x133 / me=umh / subme=10 / psy=1 / psy_rd=1.05:0.12 / mixed_ref=1 / me_range=32 / chroma_me=1 / trellis=2 / 8x8dct=1 / cqm=0 / deadzone=21,11 / fast_pskip=0 / chroma_qp_offset=-3 / threads=6 / lookahead_threads=1 / sliced_threads=0 / nr=0 / decimate=0 / interlaced=0 / bluray_compat=0 / constrained_intra=0 / bframes=12 / b_pyramid=2 / b_adapt=2 / b_bias=0 / direct=3 / weightb=1 / open_gop=0 / weightp=2 / keyint=250 / keyint_min=25 / scenecut=40 / intra_refresh=0 / rc=2pass / mbtree=0 / bitrate=1118 / ratetol=1.0 / qcomp=0.60 / qpmin=0 / qpmax=69 / qpstep=4 / cplxblur=20.0 / qblur=0.5 / ip_ratio=1.40 / pb_ratio=1.30 / aq=3:1.00
Default : Да
Forced : Нет
Цветовой диапазон : Limited
Основные цвета : BT.709
Характеристики трансфера : BT.709
Коэффициенты матрицы : BT.709

Аудио
Идентификатор : 2
Формат : AAC LC SBR
Формат/Информация : Advanced Audio Codec Low Complexity with Spectral Band Replication
Коммерческое название : HE-AAC
Настройки формата : Explicit
Идентификатор кодека : A_AAC-2
Продолжительность : 1 ч. 27 м.
Битрейт : 76,0 Кбит/сек
Каналы : 2 канала
Channel layout : L R
Частота : 44,1 КГц
Частота кадров : 21,533 кадра/сек (2048 SPF)
Метод сжатия : С потерями
Задержка видео : 33 мс.
Размер потока : 47,4 Мбайт (6%)
Язык : Russian
Default : Да
Forced : Нет



Скриншоты:
[+] Всего файлов в раздаче - 1:
Real.patsanyi.protiv.zombi.2020.WEBRip-AVC.ExKinoRay.mkv744.81 MB

Похожие раздачи по запросу - реальные:
2021-01-18 U Реальные пацаны против зомби (2020) WEBRip от Generalfilm | КПК 331.20 MB ↑ 70 ↓ 6
2021-01-17 U Реальные пацаны против зомби (2020) WEBRip от Files-x 1.37 GB ↑ 68 ↓ 33
2021-01-17 U Реальные пацаны против зомби (2020) WEBRip-AVC от Files-х 1.46 GB ↑ 112 ↓ 31
2021-01-17 U Реальные пацаны против зомби (2020) WEBRip 720p 1.93 GB ↑ 182 ↓ 18
2021-01-16 U Реальные пацаны против зомби (2020) WEBRip от ELEKTRI4KA 1К1.37 GB ↑ 120 ↓ 203
2021-01-16 U Реальные пацаны против зомби (2020) WEBRip 1080p от ELEKTRI4KA 2.84 GB ↑ 330 ↓ 339

Отзывы
r29blr Оценка: 3
Самоизоляция может даже зомби вылечить . Веселуха с зомби на троечку .

Зарегистрируйтесь чтобы добавить комментарий.
Загрузите программу
  uTorrent.exe
Обратная связь
Copyleft ©