↑↓torrent.by
Поиск
Логин: Регистрация
Пароль: Восстановить пароль

Айсберг / Титаник 2 / Titanic II (2010) BDRip 1080p | P | Лицензия

Скачать aysberg-titanik-2-titanic-ii-2010-bdrip-1080p-p-licenziya.torrent
U Магнитная ссылка Размер: 7.41 GB Раздают: 36 Качают: 17 Добавлен: 2021-01-18 04:23:09
Айсберг / Титаник 2 / Titanic II (2010) BDRip 1080p | P | Лицензия

Название: Айсберг / Титаник 2
Оригинальное название: Titanic II
Год выхода: 2010
Жанр: Боевик, триллер, драма, мелодрама, приключения
Режиссер: Шэйн Ван Дайк
В ролях: Шэйн Ван Дайк, Мари Уэстбрук, Брюс Дэвисон, Брук Бёрнс, Мишель Главан, Кэри Ван Дайк, Д.С. Дуглас, Дилан Вокс, Уиттли Джордан, Майлс Крэнфорд, Джошуа Роман, Камерон Гордон, Майкл Гальо, Кендра Сью Уолдман, Мэтт Лаган, Джералд Уэбб

О фильме:
К 100-летию первоначального рейса знаменитого лайнера приурочили выход в море современного роскошного корабля «Титаник 2». Он должен проделать тот же путь, что и его предшественник. Но в пути его ждет опасность — цунами перемещает айсберг, и он оказывается на пути лайнера. Пассажиры и члены экипажа должны бороться, чтобы избежать печальной участи.

Страна: США
Студия: The Global Asylum
Продолжительность: 01:29:51
Перевод: Профессиональный многоголосый | Лицензия R5

Файл
Кодек: x.264
Качество: BDRip 1080p
Видео: MPEG-4 AVC, 11.0 Mбит/с, 1912x1080, 23.976 кадр/с
Аудио #1: Русский (АС3, 6 ch, 448 Кбит/с, 48.0 KHz) Профессиональный (многоголосый, закадровый) R5
Аудио #2: Английский (АС3, 2 ch, 384 Кбит/с, 48.0 KHz)
Субтитры: английские
Трейлер




[+] MediaInfo
Источник: Titanic.II.2010.1080p.BluRay.x264-HANDJOB
General
Unique ID                      : 214652234960986521774649947650329394205 (0xA17C8446108940ECB2CE9B6A8A73BC1D)
Complete name                  : Titanic.II.2010.BDRip.1080p.mkv
Format                         : Matroska
Format version                 : Version 4
File size                      : 7.41 GiB
Duration                       : 1 h 29 min
Overall bit rate               : 11.8 Mb/s
Encoded date                   : UTC 2021-01-16 19:58:30
Writing application            : mkvmerge v7.1.0 ('Good Love') 64bit built on Jul 27 2014 13:06:55
Writing library                : libebml v1.3.0 + libmatroska v1.4.1

Video
ID                             : 1
Format                         : AVC
Format/Info                    : Advanced Video Codec
Format profile                 : High@L4.1
Format settings                : CABAC / 4 Ref Frames
Format settings, CABAC         : Yes
Format settings, Reference fra : 4 frames
Codec ID                       : V_MPEG4/ISO/AVC
Duration                       : 1 h 29 min
Bit rate                       : 11.0 Mb/s
Width                          : 1 912 pixels
Height                         : 1 080 pixels
Display aspect ratio           : 16:9
Frame rate mode                : Constant
Frame rate                     : 23.976 (24000/1001) FPS
Color space                    : YUV
Chroma subsampling             : 4:2:0
Bit depth                      : 8 bits
Scan type                      : Progressive
Bits/(Pixel*Frame)             : 0.222
Stream size                    : 6.89 GiB (93%)
Writing library                : x264 core 148
Encoding settings              : cabac=1 / ref=4 / deblock=1:-3:-3 / analyse=0x3:0x133 / me=umh / subme=10 / psy=1 / psy_rd=1.00:0.00 / mixed_ref=1 / me_range=32 / chroma_me=1 / trellis=2 / 8x8dct=1 / cqm=0 / deadzone=21,11 / fast_pskip=0 / chroma_qp_offset=-2 / threads=12 / lookahead_threads=3 / sliced_threads=0 / nr=0 / decimate=0 / interlaced=0 / bluray_compat=0 / constrained_intra=0 / bframes=16 / b_pyramid=2 / b_adapt=2 / b_bias=0 / direct=3 / weightb=1 / open_gop=0 / weightp=2 / keyint=240 / keyint_min=24 / scenecut=40 / intra_refresh=0 / rc_lookahead=60 / rc=crf / mbtree=0 / crf=18.2 / qcomp=0.60 / qpmin=0 / qpmax=69 / qpstep=4 / vbv_maxrate=62500 / vbv_bufsize=78125 / crf_max=0.0 / nal_hrd=none / filler=0 / ip_ratio=1.40 / pb_ratio=1.30 / aq=2:1.00
Language                       : English
Default                        : Yes
Forced                         : No
Color range                    : Limited
Color primaries                : BT.709
Transfer characteristics       : BT.709
Matrix coefficients            : BT.709

Audio #1
ID                             : 2
Format                         : AC-3
Format/Info                    : Audio Coding 3
Commercial name                : Dolby Digital
Codec ID                       : A_AC3
Duration                       : 1 h 29 min
Bit rate mode                  : Constant
Bit rate                       : 448 kb/s
Channel(s)                     : 6 channels
Channel layout                 : L R C LFE Ls Rs
Sampling rate                  : 48.0 kHz
Frame rate                     : 31.250 FPS (1536 SPF)
Compression mode               : Lossy
Stream size                    : 288 MiB (4%)
Title                          : MVO | R5
Language                       : Russian
Service kind                   : Complete Main
Default                        : Yes
Forced                         : No

Audio #2
ID                             : 3
Format                         : AC-3
Format/Info                    : Audio Coding 3
Commercial name                : Dolby Digital
Codec ID                       : A_AC3
Duration                       : 1 h 29 min
Bit rate mode                  : Constant
Bit rate                       : 384 kb/s
Channel(s)                     : 2 channels
Channel layout                 : L R
Sampling rate                  : 48.0 kHz
Frame rate                     : 31.250 FPS (1536 SPF)
Compression mode               : Lossy
Stream size                    : 247 MiB (3%)
Language                       : English
Service kind                   : Complete Main
Default                        : No
Forced                         : No

Text
ID                             : 4
Format                         : UTF-8
Codec ID                       : S_TEXT/UTF8
Codec ID/Info                  : UTF-8 Plain Text
Duration                       : 1 h 21 min
Bit rate                       : 35 b/s
Count of elements              : 665
Stream size                    : 21.0 KiB (0%)
Language                       : English
Default                        : No
Forced                         : No

Menu
00:00:00.000                   : :Chapter 01
00:07:30.366                   : :Chapter 02
00:15:29.470                   : :Chapter 03
00:22:22.215                   : :Chapter 04
00:29:25.430                   : :Chapter 05
00:36:06.497                   : :Chapter 06
00:44:25.704                   : :Chapter 07
00:52:12.504                   : :Chapter 08
01:00:55.485                   : :Chapter 09
01:09:11.647                   : :Chapter 10
01:16:36.174                   : :Chapter 11
01:22:16.640                   : :Chapter 12



Скриншоты:
[+] Всего файлов в раздаче - 1:
Titanic.II.2010.BDRip.1080p.mkv7.41 GB

Отзывы
Зарегистрируйтесь чтобы добавить комментарий.
Загрузите программу
  uTorrent.exe
Обратная связь
Copyleft ©