↑↓torrent.by
Поиск
Логин: Регистрация
Пароль: Восстановить пароль

Мусорщик (2001) DVDRip-AVC от KORSAR

Скачать musorschik-2001-dvdrip-avc-ot-korsar.torrent
U Магнитная ссылка Размер: 1.85 GB Раздают: 173 Качают: 59 Добавлен: 2021-01-18 18:11:46
Мусорщик (2001) DVDRip-AVC от KORSAR

Мусорщик
Жанр:  Криминальная мелодрама
Год выпуска: 2001
Режиссер: Георгий Шенгелия
В ролях: Алексей Гуськов, Олеся Судзиловская, Елена Баромыкина, Александр Берда, Юрий Горин, Валерий Иваков, Юрий Колокольников, Михаил Левченко, Дмитрий Матросов, Нелли Неведина

О фильме:
Он — мусорщик в маленьком провинциальном городке, утопающем в русских снегах где-то неподалеку от Москвы. Она — похоже, столичная штучка, непонятно какими судьбами занесенная в эту глухомань.
Итак, наши дни. Обычное холодное утро. Блондинка в алом «рено». Она безуспешно ищет гостиницу и, увидев какого-то мужика в спецовке, рада хоть с кем-то поговорить. Но мужик, хоть и мусорщик, на мусорщика совсем не похож: речь, манеры, ирония…
Так ведут себя люди с очень интересным прошлым. Что он подумал о ней, неизвестно. Но вскоре они встретились вновь. Мусорщик, выдающий себя за философа, — это бывает. Но мусорщик, одетый как миллионер, — это уж слишком! Она решила выяснить все. Даже если это очень опасно…

Страна: Россия
Производство: FAF Entertainment
Продолжительность: 01:33:24
Перевод: Не требуется

Файл
Формат: MKV
Качество: DVDRip-AVC
Видео: MPEG-4 AVC, 706x448@753x448, 25 fps, 2197 Кбит/с
Аудио1: Русский, AC3, 6 ch, 448 Кбит/с
Аудио2: Русский, AC3, 2 ch, 192 Кбит/с
Cубтитры: нет
Навигация по главам: есть

Релиз от: Cthulhu


[+] Mediainfo
x264 [info]: frame I:1034  Avg QP:17.45  size: 66215
x264 [info]: frame P:33127 Avg QP:19.04  size: 26979
x264 [info]: frame B:105948 Avg QP:20.81  size:  5445
x264 [info]: consecutive B-frames:  2.7%  3.1% 11.4% 23.8% 23.5% 29.7%  3.7%  0.7%  0.7%  0.5%  0.3%  0.0%

General
Unique ID                   : 149962968960142744578505596371367555447 (0x70D1D13718B18D1574D7A3C2D1DEF177)
Complete name               : S:FILMSМусорщик (2001) DVDRip-AVC - KORSAR.mkv
Format                      : Matroska
Format version              : Version 4 / Version 2
File size                   : 1.85 GiB
Duration                    : 1 h 33 min
Overall bit rate            : 2 837 kb/s
Movie name                  : Мусорщик (2001)_rip_by_Cthulhu
Encoded date                : UTC 2019-09-20 19:02:17
Writing application         : mkvmerge v37.0.0 ('Leave It') 64-bit
Writing library             : libebml v1.3.9 + libmatroska v1.5.2
Cover                       : Yes
Attachments                 : cover1.jpg

Video
ID                          : 1
Format                      : AVC
Format/Info                 : Advanced Video Codec
Format profile              : High@L4.1
Format settings             : CABAC / 15 Ref Frames
Format settings, CABAC      : Yes
Format settings, ReFrames   : 15 frames
Codec ID                    : V_MPEG4/ISO/AVC
Duration                    : 1 h 33 min
Bit rate                    : 2 197 kb/s
Width                       : 706 pixels
Height                      : 448 pixels
Display aspect ratio        : 5:3
Frame rate mode             : Constant
Frame rate                  : 25.000 FPS
Color space                 : YUV
Chroma subsampling          : 4:2:0
Bit depth                   : 8 bits
Scan type                   : Progressive
Bits/(Pixel*Frame)          : 0.278
Stream size                 : 1.43 GiB (77%)
Writing library             : x264 core 152 r2851kMod ba24899
Encoding settings           : cabac=1 / ref=15 / deblock=1:-2:-2 / analyse=0x3:0x133 / me=umh / subme=11 / psy=1 / fade_compensate=0.00 / psy_rd=1.00:0.02 / mixed_ref=1 / me_range=48 / chroma_me=1 / trellis=2 / 8x8dct=1 / cqm=0 / deadzone=21,11 / fast_pskip=1 / chroma_qp_offset=-3 / threads=14 / lookahead_threads=3 / sliced_threads=0 / nr=0 / decimate=1 / interlaced=0 / bluray_compat=0 / constrained_intra=0 / bframes=11 / b_pyramid=2 / b_adapt=2 / b_bias=0 / direct=3 / weightb=1 / open_gop=0 / weightp=2 / keyint=250 / keyint_min=25 / scenecut=40 / intra_refresh=0 / rc_lookahead=60 / rc=crf / mbtree=0 / crf=18.0000 / qcomp=0.65 / qpmin=0 / qpmax=39 / qpstep=4 / vbv_maxrate=50000 / vbv_bufsize=62500 / crf_max=0.0 / nal_hrd=none / filler=0 / ip_ratio=1.40 / pb_ratio=1.30 / aq=3:1.00
Language                    : Russian
Default                     : Yes
Forced                      : No
Color range                 : Limited
Color primaries             : BT.601 PAL
Transfer characteristics    : BT.470 System B/G
Matrix coefficients         : BT.470 System B/G

Audio #1
ID                          : 2
Format                      : AC-3
Format/Info                 : Audio Coding 3
Commercial name             : Dolby Digital
Codec ID                    : A_AC3
Duration                    : 1 h 33 min
Bit rate mode               : Constant
Bit rate                    : 448 kb/s
Channel(s)                  : 6 channels
Channel layout              : L R C LFE Ls Rs
Sampling rate               : 48.0 kHz
Frame rate                  : 31.250 FPS (1536 SPF)
Bit depth                   : 16 bits
Compression mode            : Lossy
Stream size                 : 298 MiB (16%)
Language                    : Russian
Service kind                : Complete Main
Default                     : Yes
Forced                      : No

Audio #2
ID                          : 3
Format                      : AC-3
Format/Info                 : Audio Coding 3
Commercial name             : Dolby Digital
Codec ID                    : A_AC3
Duration                    : 1 h 33 min
Bit rate mode               : Constant
Bit rate                    : 192 kb/s
Channel(s)                  : 2 channels
Channel layout              : L R
Sampling rate               : 48.0 kHz
Frame rate                  : 31.250 FPS (1536 SPF)
Bit depth                   : 16 bits
Compression mode            : Lossy
Stream size                 : 128 MiB (7%)
Language                    : Russian
Service kind                : Complete Main
Default                     : No
Forced                      : No

Menu
00:00:00.000                : en:Chapter 1
00:02:59.040                : en:Chapter 2
00:06:27.040                : en:Chapter 3
00:11:41.120                : en:Chapter 4
00:14:35.320                : en:Chapter 5
00:19:37.960                : en:Chapter 6
00:22:46.720                : en:Chapter 7
00:32:06.760                : en:Chapter 8
00:34:46.920                : en:Chapter 9
00:39:51.640                : en:Chapter 10
00:41:46.560                : en:Chapter 11
00:45:06.240                : en:Chapter 12
00:48:57.120                : en:Chapter 13
00:50:30.200                : en:Chapter 14
00:53:22.320                : en:Chapter 15
01:03:00.040                : en:Chapter 16
01:06:52.480                : en:Chapter 17
01:08:16.720                : en:Chapter 18
01:12:08.120                : en:Chapter 19
01:16:04.720                : en:Chapter 20
01:18:52.160                : en:Chapter 21
01:22:25.360                : en:Chapter 22
01:27:36.840                : en:Chapter 23
01:30:40.400                : en:Chapter 24
01:33:23.680                : en:Chapter 25



Скриншоты:
[+] Всего файлов в раздаче - 1:
Мусорщик (2001) DVDRip-AVC - KORSAR.mkv1.85 GB

Отзывы
Зарегистрируйтесь чтобы добавить комментарий.
Загрузите программу
  uTorrent.exe
Обратная связь
Copyleft ©