↑↓torrent.by
Поиск
Логин: Регистрация
Пароль: Восстановить пароль

Viasat History: Ганнибал: новые данные / Hannibal: The New Evidence (2018) HDTV 1080i | P1

Скачать viasat-history-gannibal-novye-dannye-hannibal-the-new-evidence-2018-hdtv-1080i-p1.torrent
U Магнитная ссылка Размер: 2.47 GB Раздают: 39 Качают: 2 Добавлен: 2021-01-19 04:42:54
Viasat History: Ганнибал: новые данные / Hannibal: The New Evidence (2018) HDTV  1080i | P1

Название: Ганнибал: новые данные
Оригинальное название: Hannibal: The New Evidence
Год выхода: 2018
Жанр: Документальнй, история
Режиссер: Джулия Кларк

О фильме:
Ганнибал - один из самых известных генералов в истории, он был вдохновителем самой смелой военной операции, которую когда-либо видел мир. Он пересек Альпы за 16 дней со своей огромной армией из 30 000 солдат, 15 000 лошадей и 37 слонов, чтобы начать атаку на Рим с севера. Это был гениальный ход, который с тех пор захватил воображение многих поколений, но никаких физических доказательств существования армии Ганнибала в Альпах не было найдено, и правда, стоящая за его экспедицией, является одной из величайших загадок истории. В этом знаменательном фильме группа ученых и археологов отправляется в эпическую экспедицию, чтобы раз и навсегда ответить на эти вопросы. Их исследования являются передовыми и обещают раскрыть новую взрывоопасную историю, которая может переписать историю, взорвав все, что, как мы думали, мы знали о Ганнибале.


Страна: Франция
Студия: Lion Television
Продолжительность: 00:46:01
Перевод: Профессиональный (одноголосый закадровый) SDI Media

Файл
Кодек: AVC/H.264
Качество: HDTV  1080i
Видео: 1920x1080 (16:9), AVC (H.264), High@L4, 700 kbps, 25fps, 0.135 bit/pixel
Звук:
Русский 48 kHz, MPEG Layer 2, 2 ch, ~160.00 kbps avg
Английский 48 kHz, MPEG Layer 2, 2 ch, ~128.00 kbps avg

Семпл

Релиз от: kyba
[+] MediaInfo
Complete name               : F:НаладкиГаннибал_новые данные.ts
Format                      : MPEG-TS
File size                   : 2.47 GiB
Duration                    : 46 min 1 s
Overall bit rate mode       : Variable
Overall bit rate            : 7 670 kb/s

Video
ID                          : 305 (0x131)
Menu ID                     : 17105 (0x42D1)
Format                      : AVC
Format/Info                 : Advanced Video Codec
Format profile              : High@L4
Format settings             : CABAC / 4 Ref Frames
Format settings, CABAC      : Yes
Format settings, RefFrames  : 4 frames
Format settings, GOP        : M=4, N=28
Codec ID                    : 27
Duration                    : 46 min 1 s
Bit rate                    : 7 000 kb/s
Width                       : 1 920 pixels
Height                      : 1 080 pixels
Display aspect ratio        : 16:9
Frame rate                  : 25.000 FPS
Standard                    : Component
Color space                 : YUV
Chroma subsampling          : 4:2:0
Bit depth                   : 8 bits
Scan type                   : Interlaced
Scan type, store method     : Separated fields
Scan order                  : Top Field First
Bits/(Pixel*Frame)          : 0.135
Stream size                 : 2.25 GiB (91%)
Color range                 : Limited
Color primaries             : BT.709
Transfer characteristics    : BT.709
Matrix coefficients         : BT.709

Audio #1
ID                          : 405 (0x195)
Menu ID                     : 17105 (0x42D1)
Format                      : MPEG Audio
Format version              : Version 1
Format profile              : Layer 2
Codec ID                    : 3
Duration                    : 46 min 1 s
Bit rate mode               : Constant
Bit rate                    : 160 kb/s
Channel(s)                  : 2 channels
Sampling rate               : 48.0 kHz
Compression mode            : Lossy
Stream size                 : 52.7 MiB (2%)
Language                    : Russian

Audio #2
ID                          : 425 (0x1A9)
Menu ID                     : 17105 (0x42D1)
Format                      : MPEG Audio
Format version              : Version 1
Format profile              : Layer 2
Codec ID                    : 3
Duration                    : 46 min 1 s
Bit rate mode               : Constant
Bit rate                    : 128 kb/s
Channel(s)                  : 2 channels
Sampling rate               : 48.0 kHz
Compression mode            : Lossy
Stream size                 : 42.1 MiB (2%)
Language                    : English



Скриншоты:
[+] Всего файлов в раздаче - 1:
Ганнибал_новые данные.ts2.47 GB

Похожие раздачи по запросу - viasat:
2020-11-30 U Viasat History: Тайная история тамплиеров / The Secret Story of the Knights Templar [01-03 из 03] (2019) HDTV 1080i | P1 9.36 GB ↑ 35 ↓ 30

Отзывы
Зарегистрируйтесь чтобы добавить комментарий.
Загрузите программу
  uTorrent.exe
Обратная связь
Copyleft ©