↑↓torrent.by
Поиск
Логин: Регистрация
Пароль: Восстановить пароль

Феи: Тайна страны драконов / Bayala: A Magical Adventure (2019) BDRip 720p от ELEKTRI4KA | IVI

Скачать fei-tayna-strany-drakonov-bayala-a-magical-adventure-2019-bdrip-720p-ot-elektri4ka-ivi.torrent
U Магнитная ссылка Размер: 4.26 GB Раздают: 25 Качают: 6 Добавлен: 2021-01-19 04:46:04
Феи: Тайна страны драконов / Bayala: A Magical Adventure (2019) BDRip 720p от ELEKTRI4KA | IVI

Информация
Название: Феи: Тайна страны драконов
Оригинальное название: Bayala: A Magical Adventure
Год выхода: 2019
Жанр: Мультфильм, фэнтези, приключения, семейный
Режиссер: Айна Ярвин, Федерико Милелла
В ролях: Мэдисон Маллахи, Джессика Уэбб, Оливия Мэннинг, Сара Петерсен, Марк Томпсон, Грегори Макс, Лиза Ортиз, Ребекка Бекер, Кэтрин Кэхилл, Луиз Уайт

Описание: Испокон веков эльфийские племена жили бок о бок с самыми загадочными существами на свете – драконами, в волшебной Стране под названием «Баяла». Между эльфами и драконами существовала особая мистическая связь, ведь эльфы присматривали за драконьими яйцами. Но однажды Офира - королева темных эльфов, украла все драконьи яйца, а вместе с ними похитила и маленькую принцессу солнечных эльфов. Драконы исчезли, Баяла начала терять свою волшебную силу, в то время как Офира стала ещё более могущественной. Найдется ли герой, готовый бросить ей вызов и сумеют ли эльфийские племена объединиться, чтобы вернуть счастье и процветание родному краю?

Выпущено: Германия, Люксембург / Ulysses Filmproduktion, Fabrique d'Images, Telepool
Продолжительность: 01:24:22
Озвучивание #1: Дублированное | IVI
Озвучивание #2: Дублированное [Украинский язык] | Новий

Файл
Формат: MKV
Качество: BDRip 720p
Видео: MPEG-4 AVC, 6000 Kb/s, 1280x690
Аудио #1: Russian: 48 kHz, AC3 Dolby Digital, 3/2 (L, C, R, l, r) + LFE ch, ~384 Kbps | DUB | IVI
Аудио #2: Ukrainian: 48 kHz, AC3 Dolby Digital, 2/0 (L, R) ch, ~192 Kbps | DUB | Новий
Аудио #3: German: 48 kHz, AC3 Dolby Digital, 3/2 (L, C, R, l, r) + LFE ch, ~640 Kbps | Original
Субтитры: German (SDH)
Дополнительно: Сохранены оригинальные чаптеры.

Релиз: &


[+] MediaInfo:
Complete name : Fei.Tayna.stranyi.drakonov.2019.720p.BluRay.ELEKTRI4KA.UNIONGANG.mkv
Format : Matroska
Format version : Version 4 / Version 2
File size : 4.26 GiB
Duration : 1 h 24 min
Overall bit rate : 7 224 kb/s
Movie name : Fei.Tayna.stranyi.drakonov.2019.720p.BluRay.ELEKTRI4KA.UNIONGANG.
Encoded date : UTC 2021-01-17 17:20:14
Writing application : mkvmerge v8.3.0 ('Over the Horizon') 64bit
Writing library : libebml v1.3.1 + libmatroska v1.4.2

Video
ID : 1
Format : AVC
Format/Info : Advanced Video Codec
Format profile : High@L5
Format settings, CABAC : Yes
Format settings, Reference frames : 12 frames
Codec ID : V_MPEG4/ISO/AVC
Duration : 1 h 24 min
Bit rate : 6 000 kb/s
Width : 1 280 pixels
Height : 690 pixels
Display aspect ratio : 1.85:1
Frame rate mode : Constant
Frame rate : 24.000 FPS
Color space : YUV
Chroma subsampling : 4:2:0
Bit depth : 8 bits
Scan type : Progressive
Bits/(Pixel*Frame) : 0.283
Stream size : 3.53 GiB (83%)
Title : .ELEKTRI4KA.UNIONGANG.
Writing library : x264 core 161 r3020 d198931
Encoding settings : cabac=1 / ref=12 / deblock=1:-3:-3 / analyse=0x3:0x133 / me=hex / subme=10 / psy=1 / psy_rd=1.00:0.00 / mixed_ref=1 / me_range=16 / chroma_me=1 / trellis=2 / 8x8dct=1 / cqm=0 / deadzone=21, 11 / fast_pskip=0 / chroma_qp_offset=-2 / threads=33 / lookahead_threads=2 / sliced_threads=0 / nr=0 / decimate=0 / interlaced=0 / bluray_compat=0 / constrained_intra=0 / bframes=8 / b_pyramid=2 / b_adapt=1 / b_bias=0 / direct=3 / weightb=0 / open_gop=0 / weightp=2 / keyint=240 / keyint_min=24 / scenecut=40 / intra_refresh=0 / rc=2pass / mbtree=0 / bitrate=6000 / ratetol=1.0 / qcomp=0.60 / qpmin=0 / qpmax=69 / qpstep=4 / cplxblur=20.0 / qblur=0.5 / ip_ratio=1.40 / pb_ratio=1.30 / aq=1:1.00
Language : German
Default : Yes
Forced : No

Audio #1
ID : 2
Format : AC-3
Format/Info : Audio Coding 3
Mode extension : CM (complete main)
Format settings, Endianness : Big
Codec ID : A_AC3
Duration : 1 h 23 min
Bit rate mode : Constant
Bit rate : 384 kb/s
Channel(s) : 6 channels
Channel positions : Front: L C R, Side: L R, LFE
Sampling rate : 48.0 kHz
Frame rate : 31.250 FPS (1536 spf)
Bit depth : 16 bits
Compression mode : Lossy
Stream size : 231 MiB (5%)
Title : DUB (IVI)
Language : Russian
Default : Yes
Forced : Yes

Audio #2
ID : 3
Format : AC-3
Format/Info : Audio Coding 3
Mode extension : CM (complete main)
Format settings, Endianness : Big
Codec ID : A_AC3
Duration : 1 h 24 min
Bit rate mode : Constant
Bit rate : 192 kb/s
Channel(s) : 2 channels
Channel positions : Front: L R
Sampling rate : 48.0 kHz
Frame rate : 31.250 FPS (1536 spf)
Bit depth : 16 bits
Compression mode : Lossy
Stream size : 116 MiB (3%)
Title : DUB
Language : Ukrainian
Default : No
Forced : No

Audio #3
ID : 4
Format : AC-3
Format/Info : Audio Coding 3
Mode extension : CM (complete main)
Format settings, Endianness : Big
Codec ID : A_AC3
Duration : 1 h 24 min
Bit rate mode : Constant
Bit rate : 640 kb/s
Channel(s) : 6 channels
Channel positions : Front: L C R, Side: L R, LFE
Sampling rate : 48.0 kHz
Frame rate : 31.250 FPS (1536 spf)
Bit depth : 16 bits
Compression mode : Lossy
Stream size : 386 MiB (9%)
Title : Original
Language : German
Default : No
Forced : No

Text
ID : 5
Format : PGS
Muxing mode : zlib
Codec ID : S_HDMV/PGS
Codec ID/Info : Picture based subtitle format used on BDs/HD-DVDs
Duration : 1 h 17 min
Bit rate : 10.4 kb/s
Count of elements : 1718
Stream size : 5.77 MiB (0%)
Title : SDH
Language : German
Default : No
Forced : No

Menu
00:00:00.000 : :Chapter 01
00:11:15.083 : :Chapter 02
00:18:34.333 : :Chapter 03
00:29:16.958 : :Chapter 04
00:39:25.958 : :Chapter 05
00:49:15.917 : :Chapter 06
00:58:14.292 : :Chapter 07
01:08:12.625 : :Chapter 08
01:16:26.875 : :Chapter 09



Скриншоты:
[+] Всего файлов в раздаче - 1:
Fei.Tayna.stranyi.drakonov.2019.720p.BluRay.ELEKTRI4KA.UNIONGANG.mkv4.26 GB

Показать еще раздачи по запросу тайна:
2021-02-15 U Некрасивая подружка. Тайна Белоснежки [S05] (2020) WEB-DLRip-AVC от Files-х 1.11 GB ↑ 57 ↓ 15
2021-02-15 U Некрасивая подружка. Тайна Белоснежки [S05] (2020) WEB-DLRip от Files-x 1.05 GB ↑ 137 ↓ 37
2021-02-14 U Некрасивая подружка. Тайна Белоснежки [S05] (2020) SATRip-AVC 1.03 GB ↑ 85 ↓ 101
2021-02-13 U Александр Тамоников - Тайна пленного генерала (2021) MP3 327.77 MB ↑ 18 ↓ 7
2021-02-02 U Тайна Карлоса Кастанеды / The Secret Of Carlos Castaneda (2018) WEBRip 720p | L1 2.17 GB ↑ 119 ↓ 52
2021-01-18 U Феи: Тайна страны драконов / Bayala: A Magical Adventure (2019) BDRip от ELEKTRI4KA | IVI 1.37 GB ↑ 46 ↓ 7
2020-12-23 U Улика из прошлого. Тегеран-43: последняя тайна «Большой тройки» (2020) SATRip 514.30 MB ↑ 73 ↓ 12

Отзывы
Зарегистрируйтесь чтобы добавить комментарий.
Загрузите программу
  uTorrent.exe
Обратная связь
Copyleft ©