↑↓torrent.by
Поиск
Логин: Регистрация
Пароль: Восстановить пароль

Трое (2020) WEBRip 1080p

Скачать troe-2020-webrip-1080p.torrent
U Магнитная ссылка Размер: 4.69 GB Раздают: 175 Качают: 126 Добавлен: 2021-01-20 06:22:14
Трое (2020) WEBRip 1080p

Название: Трое
Год выхода: 2020
Жанр: Драма, мелодрама
Страна: Россия
Перевод: Не требуется
Продолжительность: 02:02:01
Режиссер: Анна Меликян
В ролях: Константин Хабенский, Виктория Исакова, Юлия Пересильд, Тимур Шамсутдинов и др.

О фильме:  В центре сюжета муж, его супруга и другая женщина, ставшая камнем преткновения в их отношениях, сформировав тот самый треугольник из тайн, измен и неверности.

Файл
Качество: WEBRip1080p
Видео: MPEG-4 AVC, 1920x1036, 5120 kbps, 25,000 fps
Звук#1: русский, AC3, 2.0 ch, 48 kHz, 192 kbps
Звук#2: русский, AC3, 2.0 ch, 48 kHz, 192 kbps | 18+
Субтитры: нет

Релиз:


[+] MI
Общее
Уникальный идентификатор                 : 238558593817702022719177770422333330452 (0xB378B6C446CBAE17800A4520445BD414)
Полное имя                               : F:TorrentTroeWEBRip1080p.mkv
Формат                                   : Matroska
Версия формата                           : Version 4 / Version 2
Размер файла                             : 4,69 Гбайт
Продолжительность                        : 2 ч. 2 м.
Общий поток                              : 5501 Кбит/сек
Дата кодирования                         : UTC 2021-01-19 22:08:58
Программа кодирования                    : mkvmerge v9.5.0 ('Quiet Fire') 64bit
Библиотека кодирования                   : libebml v1.3.4 + libmatroska v1.4.5

Видео
Идентификатор                            : 1
Формат                                   : AVC
Формат/Информация                        : Advanced Video Codec
Профиль формата                          : High@L4
Настройки формата                        : CABAC / 4 Ref Frames
Параметр CABAC формата                   : Да
Параметр RefFrames формата               : 4 кадра
Идентификатор кодека                     : V_MPEG4/ISO/AVC
Продолжительность                        : 2 ч. 2 м.
Битрейт                                  : 5120 Кбит/сек
Ширина                                   : 1920 пикселей
Высота                                   : 1036 пикселей
Соотношение сторон                       : 1,85:1
Режим частоты кадров                     : Постоянный
Частота кадров                           : 25,000 кадров/сек
Цветовое пространство                    : YUV
Субдискретизация насыщенности            : 4:2:0
Битовая глубина                          : 8 бит
Тип развёртки                            : Прогрессивная
Бит/(Пиксели*Кадры)                      : 0.103
Размер потока                            : 4,36 Гбайт (93%)
Библиотека кодирования                   : x264 core 148
Настройки программы                      : cabac=1 / ref=3 / deblock=1:0:0 / analyse=0x3:0x113 / me=hex / subme=7 / psy=1 / psy_rd=1.00:0.00 / mixed_ref=1 / me_range=16 / chroma_me=1 / trellis=1 / 8x8dct=1 / cqm=0 / deadzone=21,11 / fast_pskip=1 / chroma_qp_offset=-2 / threads=32 / lookahead_threads=5 / sliced_threads=0 / nr=0 / decimate=1 / interlaced=0 / bluray_compat=0 / constrained_intra=0 / bframes=6 / b_pyramid=2 / b_adapt=1 / b_bias=0 / direct=1 / weightb=1 / open_gop=0 / weightp=2 / keyint=50 / keyint_min=26 / scenecut=0 / intra_refresh=0 / rc_lookahead=40 / rc=2pass / mbtree=1 / bitrate=5120 / ratetol=1.0 / qcomp=0.60 / qpmin=0 / qpmax=69 / qpstep=4 / cplxblur=20.0 / qblur=0.5 / vbv_maxrate=7680 / vbv_bufsize=20480 / nal_hrd=none / filler=0 / ip_ratio=1.40 / aq=1:1.00
Язык                                     : Russian
Default                                  : Да
Forced                                   : Нет

Аудио #1
Идентификатор                            : 2
Формат                                   : AC-3
Формат/Информация                        : Audio Coding 3
Параметр Endianness формата              : Big
Идентификатор кодека                     : A_AC3
Продолжительность                        : 2 ч. 2 м.
Вид битрейта                             : Постоянный
Битрейт                                  : 192 Кбит/сек
Каналы                                   : 2 канала
Расположение каналов                     : Front: L R
Частота                                  : 48,0 КГц
Частота кадров                           : 31,250 кадров/сек (1536 SPF)
Битовая глубина                          : 16 бит
Метод сжатия                             : С потерями
Размер потока                            : 168 Мбайт (3%)
Заголовок                                : rus
Язык                                     : Russian
Default                                  : Да
Forced                                   : Нет

Аудио #2
Идентификатор                            : 3
Формат                                   : AC-3
Формат/Информация                        : Audio Coding 3
Параметр Endianness формата              : Big
Идентификатор кодека                     : A_AC3
Продолжительность                        : 2 ч. 2 м.
Вид битрейта                             : Постоянный
Битрейт                                  : 192 Кбит/сек
Каналы                                   : 2 канала
Расположение каналов                     : Front: L R
Частота                                  : 48,0 КГц
Частота кадров                           : 31,250 кадров/сек (1536 SPF)
Битовая глубина                          : 16 бит
Метод сжатия                             : С потерями
Размер потока                            : 168 Мбайт (3%)
Заголовок                                : rus 18
Язык                                     : Russian
Default                                  : Нет
Forced                                   : Нет



Скриншоты:
[+] Всего файлов в раздаче - 1:
TroeWEBRip1080p.mkv4.69 GB

Похожие раздачи по запросу - трое:
2021-01-28 U Трое (2020) WEBRip-AVC от ExKinoRay 1К1.46 GB ↑ 81 ↓ 22
2021-01-22 U Трое (2020) WEBRip от Files-x 2.05 GB ↑ 47 ↓ 15
2021-01-21 U Трое (2020) WEB-DLRip-HEVC 720p | IVI 2.06 GB ↑ 72 ↓ 11
2021-01-21 U Трое (2020) WEBRip-AVC от Files-х 2.04 GB ↑ 140 ↓ 18
2021-01-20 U Трое (2020) WEBRip 720p | IVI 2.46 GB ↑ 148 ↓ 60
2021-01-20 U Трое (2020) WEBRip от MegaPeer 1.46 GB ↑ 178 ↓ 91

Отзывы
Зарегистрируйтесь чтобы добавить комментарий.
Загрузите программу
  uTorrent.exe
Обратная связь
Copyleft ©