↑↓torrent.by
Поиск
Логин: Регистрация
Пароль: Восстановить пароль

Самые шокирующие гипотезы - Как жили на Руси до Христа? (2021) SATRip

Скачать samye-shokiruyuschie-gipotezy-kak-zhili-na-rusi-do-hrista-2021-satrip.torrent
U Магнитная ссылка Размер: 659.40 MB Раздают: 65 Качают: 22 Добавлен: 2021-01-20 15:36:45
Самые шокирующие гипотезы - Как жили на Руси до Христа? (2021) SATRip

Оригинальное название: Самые шокирующие гипотезы
Год выпуска: 2021
Страна: Россия
Жанр:  Документальный, история, наука, исследования
Продолжительность: 00:48:00
Перевод: Не требуется

О фильме: "Самые шокирующие гипотезы" - документальный проект телеканала "Рен ТВ"! Мы дадим новые ответы на старые вопросы и зададим свои. Факты, о которых долго молчали наши коллеги-журналисты, и независимая оценка событий, изменивших мир. Расследования самых сенсационных историй и свежий взгляд на, казалось бы, общеизвестные исторические факты. Поиск закономерностей и параллелей в самых невероятных явлениях нашей жизни, новости из всех областей человеческих знаний и загадки потаённых уголков нашего подсознания.

качество: SATRip
формат: AVI
Видео: 720x400, 25fps, XviD, 1800kbps
Аудио: 192kbps, 2 (stereo), 48kHz, MP3
[+] Media Info
Общее
Полное имя                               : D:1Samye shokirujushhie gipotezy 19.01.21 SATRip.avi
Формат                                   : AVI
Формат/Информация                        : Audio Video Interleave
Размер файла                             : 659 Мбайт
Продолжительность                        : 46 м. 34 с.
Общий поток                              : 1 980 Кбит/сек
Программа кодирования                    : Lavf54.63.104

Видео
Идентификатор                            : 0
Формат                                   : xvid
Идентификатор кодека                     : xvid
Продолжительность                        : 46 м. 34 с.
Битрейт                                  : 1 775 Кбит/сек
Ширина                                   : 720 пикселей
Высота                                   : 400 пикселей
Соотношение сторон                       : 16:9
Частота кадров                           : 25,000 кадров/сек
Тип развёртки                            : Прогрессивная
Бит/(Пиксели*Кадры)                      : 0.246
Размер потока                            : 591 Мбайт (90%)

Аудио
Идентификатор                            : 1
Формат                                   : MPEG Audio
Версия формата                           : Version 1
Профиль формата                          : Layer 3
Настройки формата                        : Joint stereo / MS Stereo
Идентификатор кодека                     : 55
Идентификатор кодека/Подсказка           : MP3
Продолжительность                        : 46 м. 34 с.
Вид битрейта                             : Постоянный
Битрейт                                  : 192 Кбит/сек
Каналы                                   : 2 канала
Частота                                  : 48,0 КГц
Метод сжатия                             : С потерями
Размер потока                            : 64,0 Мбайт (10%)
Выравнивание                             : Соединение по промежуткам
Продолжительность промежутка             : 24  мс. (0,60 видеокадр)
Библиотека кодирования                   : LAME3.99.5



Скриншоты:
[+] Всего файлов в раздаче - 1:
Samye shokirujushhie gipotezy 19.01.21 SATRip.avi659.40 MB

Показать еще раздачи по запросу самые:
2021-01-31 U Самые шокирующие гипотезы - Подземные тайны Гиммлера (2021) HDTV 1080p от HDGalaKtiK 1.22 GB ↑ 53 ↓ 19
2021-01-19 U Сборник - Самые сливки шансона (2020) MP3 183.47 MB ↑ 31 ↓ 9
2021-01-13 U Самые страшные стихийные бедствия: Цунами / Ultimate Disaster Tsunami (2006) TVRip 456.59 MB ↑ 26 ↓ 10
2020-12-02 U Самые шокирующие гипотезы. Вареное или жареное? [эфир от 01.12] (2020) SATRip 601.84 MB ↑ 39 ↓ 13
2020-10-22 U Самые шокирующие гипотезы. Контакты третьей степени [эфир от 21.10] (2020) SATRip 611.65 MB ↑ 63 ↓ 19
2020-10-21 U Самые шокирующие гипотезы. Питер до Петра [эфир от 20.10] (2020) SATRip 611.72 MB ↑ 71 ↓ 15
2020-10-13 U Самые шокирующие гипотезы. Выпивай, но проверяй [эфир от 12.10] (2020) SATRip 613.26 MB ↑ 32 ↓ 18

Отзывы
Зарегистрируйтесь чтобы добавить комментарий.
Загрузите программу
  uTorrent.exe
Обратная связь
Copyleft ©