↑↓torrent.by
Поиск
Логин: Регистрация
Пароль: Восстановить пароль

Трое (2020) WEBRip-AVC от Files-х

Скачать troe-2020-webrip-avc-ot-files-h.torrent
U Магнитная ссылка Размер: 2.04 GB Раздают: 143 Качают: 18 Добавлен: 2021-01-21 06:27:40
Трое (2020) WEBRip-AVC от Files-х

Оригинальное название: Трое
Год выпуска: 2020
Жанр:  Драма, мелодрама
Режиссер: Анна Меликян

В ролях: Константин Хабенский, Виктория Исакова, Юлия Пересильд, Тимур Шамсутдинов

О фильме: Московский психолог, автор мотивационных роликов Злата считает, что у них с Сашей прекрасный брак, который помог им обоим реализовать себя и подарил десять лет образцовой совместной жизни (для полноценного счастья не хватает только ребенка). Саша же, видимо, считает иначе, потому что втайне от жены он встречается с другой женщиной. Ее зовут Вероника, она живет в Петербурге, проводит экскурсии и увлекается поэзией. Вероника помогла Саше выбраться из воды, когда он попытался утопиться с увесистой телепремией на шее. Успешный шоумен-комик, безропотный муж, нежный влюбленный, – он разрывается между несколькими ролями, между двумя столицами, между очень разными женщинами. Но всегда ли возможно сделать выбор?.

Выпущено: Россия
Студия: Фонд развития современного кинематографа «КИНОПРАЙМ», Кинокомпания «Магнум», Метрафильмс, TRUEMEN Pictures
Продолжительность: 02:02:02

Файл
Кодек: h.264
Качество: WEBRip-AVC
Видео: MPEG-4 AVC, ~ 2204 Кбит/с, 768x576, 25 кадр/с
Аудио: Русский: AC3, 2 ch, 192 Кбит/с | Версия 18+
Язык: Русский
Субтитры: Нет

Внимание! Версия 18+. | Без цензуры | Присутствует ненормативная лексика.

Релиз:


[+] MediaInfo:

General
Unique ID                                : 188620731538709993732023700217303357855 (0x8DE7081066B651A381C95F6B3B07599F)
Complete name                            : F:Troe.(2020).WEBRip.(AVC).by.Серый1779.Files-x.mkv
Format                                   : Matroska
Format version                           : Version 2
File size                                : 2.04 GiB
Duration                                 : 2 h 2 min
Overall bit rate                         : 2 396 kb/s
Encoded date                             : UTC 2021-01-20 09:09:45
Writing application                      : mkvmerge v7.8.0 ('River Man') 32bit built on Apr  3 2015 12:11:22
Writing library                          : libebml v1.3.1 + libmatroska v1.4.2

Video
ID                                       : 1
Format                                   : AVC
Format/Info                              : Advanced Video Codec
Format profile                           : High@L4.1
Format settings                          : CABAC / 9 Ref Frames
Format settings, CABAC                   : Yes
Format settings, RefFrames               : 9 frames
Codec ID                                 : V_MPEG4/ISO/AVC
Duration                                 : 2 h 2 min
Bit rate                                 : 2 204 kb/s
Width                                    : 768 pixels
Height                                   : 576 pixels
Display aspect ratio                     : 4:3
Frame rate mode                          : Constant
Frame rate                               : 25.000 FPS
Color space                              : YUV
Chroma subsampling                       : 4:2:0
Bit depth                                : 8 bits
Scan type                                : Progressive
Bits/(Pixel*Frame)                       : 0.199
Stream size                              : 1.84 GiB (90%)
Writing library                          : x264 core 146 r2538 121396c
Encoding settings                        : cabac=1 / ref=9 / deblock=1:-2:-1 / analyse=0x3:0x133 / me=umh / subme=9 / psy=1 / psy_rd=1.00:0.15 / mixed_ref=1 / me_range=32 / chroma_me=1 / trellis=2 / 8x8dct=1 / cqm=0 / deadzone=21,11 / fast_pskip=0 / chroma_qp_offset=-3 / threads=18 / lookahead_threads=3 / sliced_threads=0 / nr=0 / decimate=1 / interlaced=0 / bluray_compat=0 / constrained_intra=0 / bframes=9 / b_pyramid=2 / b_adapt=2 / b_bias=0 / direct=3 / weightb=1 / open_gop=0 / weightp=2 / keyint=250 / keyint_min=25 / scenecut=40 / intra_refresh=0 / rc=2pass / mbtree=0 / bitrate=2204 / ratetol=1.0 / qcomp=0.60 / qpmin=0 / qpmax=69 / qpstep=4 / cplxblur=20.0 / qblur=0.5 / ip_ratio=1.40 / pb_ratio=1.30 / aq=2:1.00
Default                                  : Yes
Forced                                   : No
Color range                              : Limited
Color primaries                          : BT.709
Transfer characteristics                 : BT.709
Matrix coefficients                      : BT.709

Audio
ID                                       : 2
Format                                   : AC-3
Format/Info                              : Audio Coding 3
Format settings, Endianness              : Big
Codec ID                                 : A_AC3
Duration                                 : 2 h 2 min
Bit rate mode                            : Constant
Bit rate                                 : 192 kb/s
Channel(s)                               : 2 channels
Channel positions                        : Front: L R
Sampling rate                            : 48.0 kHz
Frame rate                               : 31.250 FPS (1536 SPF)
Bit depth                                : 16 bits
Compression mode                         : Lossy
Stream size                              : 168 MiB (8%)
Service kind                             : Complete Main
Default                                  : Yes
Forced                                   : No




Скриншоты:
[+] Всего файлов в раздаче - 1:
Troe.(2020).WEBRip.(AVC).by.Серый1779.Files-x.mkv2.04 GB

Похожие раздачи по запросу - трое:
2021-01-28 U Трое (2020) WEBRip-AVC от ExKinoRay 1К1.46 GB ↑ 81 ↓ 22
2021-01-22 U Трое (2020) WEBRip от Files-x 2.05 GB ↑ 46 ↓ 16
2021-01-21 U Трое (2020) WEB-DLRip-HEVC 720p | IVI 2.06 GB ↑ 72 ↓ 11
2021-01-20 U Трое (2020) WEBRip 720p | IVI 2.46 GB ↑ 148 ↓ 60
2021-01-20 U Трое (2020) WEBRip от MegaPeer 1.46 GB ↑ 180 ↓ 91
2021-01-20 U Трое (2020) WEBRip 1080p 4.69 GB ↑ 176 ↓ 126

Отзывы
Зарегистрируйтесь чтобы добавить комментарий.
Загрузите программу
  uTorrent.exe
Обратная связь
Copyleft ©