↑↓torrent.by
Поиск
Логин: Регистрация
Пароль: Восстановить пароль

Трое (2020) WEB-DLRip-HEVC 720p | IVI

Скачать troe-2020-web-dlrip-hevc-720p-ivi.torrent
U Магнитная ссылка Размер: 2.06 GB Раздают: 72 Качают: 11 Добавлен: 2021-01-21 06:28:39
Трое (2020) WEB-DLRip-HEVC  720p | IVI

Год выпуска: 2020
Страна: Россия
Студия: Фонд развития современного кинематографа «КИНОПРАЙМ», Кинокомпания «Магнум», Метрафильмс, TRUEMEN Pictures  
Жанр: Драма, мелодрама
Продолжительность: 02:02:02
Перевод: Не требуется

Режиссер: Анна Меликян
В ролях: Константин Хабенский, Виктория Исакова, Юлия Пересильд, Тимур Шамсутдинов

О фильме: Московский психолог, автор мотивационных роликов Злата считает, что у них с Сашей прекрасный брак, который помог им обоим реализовать себя и подарил десять лет образцовой совместной жизни (для полноценного счастья не хватает только ребенка). Саша же, видимо, считает иначе, потому что втайне от жены он встречается с другой женщиной. Ее зовут Вероника, она живет в Петербурге, проводит экскурсии и увлекается поэзией. Вероника помогла Саше выбраться из воды, когда он попытался утопиться с увесистой телепремией на шее. Успешный шоумен-комик, безропотный муж, нежный влюбленный, – он разрывается между несколькими ролями, между двумя столицами, между очень разными женщинами. Но всегда ли возможно сделать выбор?

Качество: WEB-DLRip-HEVC (720p)
Видео: HEVC, 2030 Кбит/с, 962x720, 10 бит
Аудио 1: AC3, 2 ch, 192 Кбит/с | Оригинальное (IVI) Цензура
Аудио 2: AC3, 2 ch, 192 Кбит/с | Оригинальное (IVI) 18+
Субтитры: Нет.

Релиз:


[+] Инфо
Общее
Уникальный идентификатор                 : 69063779654459417873548197844212409090 (0x33F5333BC77B123FCBA6F93D7C8E6302)
Полное имя                               : C:UsersNickDownloadsТрое (2020) WEB-DLRip (962x720) HEVC.mkv
Формат                                   : Matroska
Версия формата                           : Version 4
Размер файла                             : 2,06 Гбайт
Продолжительность                        : 2 ч. 2 м.
Общий поток                              : 2 416 Кбит/сек
Название фильма                          : Troe.2020.WEB-DL.1080p.ELEKTRI4KA.UNIONGANAG.
Дата кодирования                         : UTC 2021-01-19 22:59:07
Программа кодирования                    : mkvmerge v47.0.0 ('Black Flag') 64-bit
Библиотека кодирования                   : libebml v1.3.10 + libmatroska v1.5.2

Видео
Идентификатор                            : 1
Формат                                   : HEVC
Формат/Информация                        : High Efficiency Video Coding
Профиль формата                          : Main 10@L4@High
Идентификатор кодека                     : V_MPEGH/ISO/HEVC
Продолжительность                        : 2 ч. 2 м.
Битрейт                                  : 2 030 Кбит/сек
Ширина                                   : 962 пикселя
Высота                                   : 720 пикселей
Соотношение сторон                       : 4:3
Режим частоты кадров                     : Постоянный
Частота кадров                           : 25,000 кадров/сек
Цветовое пространство                    : YUV
Субдискретизация насыщенности            : 4:2:0
Битовая глубина                          : 10 бит
Бит/(Пиксели*Кадры)                      : 0.117
Размер потока                            : 1,73 Гбайт (84%)
Default                                  : Да
Forced                                   : Нет

Аудио #1
Идентификатор                            : 2
Формат                                   : AC-3
Формат/Информация                        : Audio Coding 3
Коммерческое название                    : Dolby Digital
Идентификатор кодека                     : A_AC3
Продолжительность                        : 2 ч. 2 м.
Вид битрейта                             : Постоянный
Битрейт                                  : 192 Кбит/сек
Каналы                                   : 2 канала
Channel layout                           : L R
Частота                                  : 48,0 КГц
Частота кадров                           : 31,250 кадров/сек (1536 SPF)
Метод сжатия                             : С потерями
Размер потока                            : 168 Мбайт (8%)
Заголовок                                : Original Tsenzura (IVI)
Язык                                     : Russian
Service kind                             : Complete Main
Default                                  : Да
Forced                                   : Да

Аудио #2
Идентификатор                            : 3
Формат                                   : AC-3
Формат/Информация                        : Audio Coding 3
Коммерческое название                    : Dolby Digital
Идентификатор кодека                     : A_AC3
Продолжительность                        : 2 ч. 2 м.
Вид битрейта                             : Постоянный
Битрейт                                  : 192 Кбит/сек
Каналы                                   : 2 канала
Channel layout                           : L R
Частота                                  : 48,0 КГц
Частота кадров                           : 31,250 кадров/сек (1536 SPF)
Метод сжатия                             : С потерями
Размер потока                            : 168 Мбайт (8%)
Заголовок                                : Original Tsenzura (IVI)
Язык                                     : Russian
Service kind                             : Complete Main
Default                                  : Нет
Forced                                   : Нет



Скриншоты:
[+] Всего файлов в раздаче - 1:
Трое (2020) WEB-DLRip (962x720) HEVC.mkv2.06 GB

Похожие раздачи по запросу - трое:
2021-01-28 U Трое (2020) WEBRip-AVC от ExKinoRay 1К1.46 GB ↑ 81 ↓ 22
2021-01-22 U Трое (2020) WEBRip от Files-x 2.05 GB ↑ 46 ↓ 16
2021-01-21 U Трое (2020) WEBRip-AVC от Files-х 2.04 GB ↑ 143 ↓ 18
2021-01-20 U Трое (2020) WEBRip 720p | IVI 2.46 GB ↑ 148 ↓ 60
2021-01-20 U Трое (2020) WEBRip от MegaPeer 1.46 GB ↑ 180 ↓ 91
2021-01-20 U Трое (2020) WEBRip 1080p 4.69 GB ↑ 176 ↓ 126

Отзывы
Зарегистрируйтесь чтобы добавить комментарий.
Загрузите программу
  uTorrent.exe
Обратная связь
Copyleft ©