↑↓torrent.by
Поиск
Логин: Регистрация
Пароль: Восстановить пароль

Отцы и деды (1982) HDTVRip-AVC от ExKinoRay

Скачать otcy-i-dedy-1982-hdtvrip-avc-ot-exkinoray.torrent
U Магнитная ссылка Размер: 1.71 GB Раздают: 30 Качают: 4 Добавлен: 2021-01-21 06:28:58
Отцы и деды (1982) HDTVRip-AVC от ExKinoRay

Название: Отцы и деды
Год выхода: 1982
Жанр:  Комедия
Режиссер: Юрий Егоров
В ролях: Анатолий Папанов, Валентин Смирнитский, Алексей Ясулович, Галина Польских, Людмила Аринина, Лидия Кузнецова, Евгений Лазарев, Николай Трофимов, Вадим Андреев, Николай Мерзликин, Ирина Бобкова, Валентин Брылеев, Николай Горлов, Станислав Коренев, Юрий Маляров, Мария Пискунова

О фильме:
Жили-были Луков-дед, Луков-сын и Луков-внук (еще, разумеется, была Лукова-мама, жена Лукова-сына). Дед, которому недалеко до пенсии, остается человеком энергичным и жизнелюбивым. Ему до всего есть дело - в первую очередь, до дел сына и внука. Но когда деду намекают на его преклонный возраст и бесперспективность, заявив, что время его прошло, он решает доказать окружающим, что если у него седина в бороде, бес в ребро стукнет обязательно, и, соответственно, его личная жизнь еще только начинается. И если он захочет, то сможет всё: не только остановить трактор и спрыгнуть с балкона, но даже жениться...

Страна: СССР
Студия: Киностудия им. М. Горького
Продолжительность: 01:19:08
Язык: Русский

Файл
Формат: MKV
Качество: HDTVRip-AVC
Видео: MPEG-4 AVC, 1024x576, 2860 Кбит/с
Аудио:  AC3, 2 ch, 224 Кбит/с
Субтитры: Нет


[+] MI
Общее
Уникальный идентификатор : 269575478139112069037505160599003479744 (0xCACE593B5D020AD2E79E12E184B43EC0)
Полное имя : D:MOVIESOtcy.i.dedy.1982.HDTVRip-AVC.ExKinoRay.mkv
Формат : Matroska
Версия формата : Version 4
Размер файла : 1,71 Гбайт
Продолжительность : 1 ч. 19 м.
Общий поток : 3 086 Кбит/сек
Дата кодирования : UTC 2021-01-19 19:29:23
Программа кодирования : mkvmerge v45.0.0 ('Heaven in Pennies') 64-bit
Библиотека кодирования : libebml v1.3.10 + libmatroska v1.5.2

Видео
Идентификатор : 1
Формат : AVC
Формат/Информация : Advanced Video Codec
Профиль формата : High@L4.1
Настройки формата : CABAC / 11 Ref Frames
Параметр CABAC формата : Да
Параметр RefFrames формата : 11 кадров
Идентификатор кодека : V_MPEG4/ISO/AVC
Продолжительность : 1 ч. 19 м.
Битрейт : 2 860 Кбит/сек
Ширина : 1 024 пикселя
Высота : 576 пикселей
Соотношение сторон : 16:9
Режим частоты кадров : Постоянный
Частота кадров : 25,000 кадров/сек
Цветовое пространство : YUV
Субдискретизация насыщенности : 4:2:0
Битовая глубина : 8 бит
Тип развёртки : Прогрессивная
Бит/(Пиксели*Кадры) : 0.194
Размер потока : 1,58 Гбайт (93%)
Библиотека кодирования : x264 core 160 r3000 33f9e14
Настройки программы : cabac=1 / ref=11 / deblock=1:-2:-2 / analyse=0x3:0x133 / me=umh / subme=10 / psy=1 / psy_rd=1.07:0.13 / mixed_ref=1 / me_range=32 / chroma_me=1 / trellis=2 / 8x8dct=1 / cqm=0 / deadzone=21,11 / fast_pskip=0 / chroma_qp_offset=-3 / threads=6 / lookahead_threads=1 / sliced_threads=0 / nr=0 / decimate=0 / interlaced=0 / bluray_compat=0 / constrained_intra=0 / bframes=10 / b_pyramid=2 / b_adapt=2 / b_bias=0 / direct=3 / weightb=1 / open_gop=0 / weightp=2 / keyint=250 / keyint_min=25 / scenecut=40 / intra_refresh=0 / rc=2pass / mbtree=0 / bitrate=2860 / ratetol=1.0 / qcomp=0.60 / qpmin=0 / qpmax=69 / qpstep=4 / cplxblur=20.0 / qblur=0.5 / ip_ratio=1.40 / pb_ratio=1.30 / aq=1:1.00
Язык : English
Default : Да
Forced : Нет
Цветовой диапазон : Limited
Основные цвета : BT.709
Характеристики трансфера : BT.709
Коэффициенты матрицы : BT.709

Аудио
Идентификатор : 2
Формат : AC-3
Формат/Информация : Audio Coding 3
Коммерческое название : Dolby Digital
Идентификатор кодека : A_AC3
Продолжительность : 1 ч. 19 м.
Вид битрейта : Постоянный
Битрейт : 224 Кбит/сек
Каналы : 2 канала
Channel layout : L R
Частота : 48,0 КГц
Частота кадров : 31,250 кадров/сек (1536 SPF)
Метод сжатия : С потерями
Размер потока : 127 Мбайт (7%)
Язык : Russian
Service kind : Complete Main
Default : Да
Forced : Нет



Скриншоты:
[+] Всего файлов в раздаче - 1:
Otcy.i.dedy.1982.HDTVRip-AVC.ExKinoRay.mkv1.71 GB

Похожие раздачи по запросу - отцы:
2021-02-13 U Наши матери, наши отцы / Unsere Mütter, unsere Väter [S01] (2013) WEB-DL 1080p | Кубик в Кубе 10.50 GB ↑ 16 ↓ 18

Отзывы
Зарегистрируйтесь чтобы добавить комментарий.
Загрузите программу
  uTorrent.exe
Обратная связь
Copyleft ©