↑↓torrent.by
Поиск
Логин: Регистрация
Пароль: Восстановить пароль

Стража / The Watch [01х01-04 из 08] (2021) WEB-DL 1080p | LostFilm

Скачать strazha-the-watch-01h01-04-iz-08-2021-web-dl-1080p-lostfilm.torrent
U Магнитная ссылка Размер: 10.92 GB Раздают: 52 Качают: 10 Добавлен: 2021-01-21 06:29:26
Стража / The Watch [01х01-04 из 08] (2021) WEB-DL 1080p | LostFilm

Название: Стража
Оригинальное название: The Watch
Год выхода: 2021
Жанр: фэнтези, боевик, триллер, драма, приключения
Режиссер: Эмма Салливан, Крэйг Вивейрос, Брайан Келли
В ролях: Ричард Дормер, Сэмюэл Адевунми, Адам Хагилл, Марама Корлетт, Джо Итон-Кент, Лара Росси, Уенделл Пирс, Джо Ваз, Мэтт Берри, Ралф Айнесон и другие.
О фильме:
В городе Анк-Морпорк преступления разрешены законом. Здесь обитают люди и расы со всего Плоского мира, бок о бок живут тролли, гномы, големы, вампиры, оборотни, зомби. Все они не просто сосуществуют, но и борются за свои права и равенство. Именно в этом гигантском кипящем котле должны нести службу стражники, с которыми никто не считается, и которые давно оставили попытки поддерживать закон. Но появление решительного новичка и ошибка прошлого заставят стражу и ее капитана вспомнить о долге.

 
Дата мировой премьеры:3 января 2021 года

Страна: Великобритания
Студия: BBC Studios, Narrativia
Продолжительность: ~ 00:43:00 серия
Перевод: Профессиональный (многоголосый закадровый) | LostFilm

Файл
Кодек: MPEG-4 AVC/x.264
Качество: WEB-DL 1080p (Амазон)
Видео: 1920x1080 (16:9), 25.000 fps, ~8189 kbps, 0.158 bit/pixel
Звук:
Аудио # Rus: AC3, 48 kHz, 6 ch, 640 kbps
Аудио # Eng: E-AC3, 48 kHz, 6 ch, 640 kbps
Субтитры: Русские (Forced, Full - FOCS), Английские (SDH)
Реклама: Отсутствует

Семпл

Релиз от: Grandfather61


[+] Релиз:

Релиз: Grandfather61
Дорожка 1 получена наложением выделенных голосов от «LostFilm» на центр оригинального AC3.
Монтаж, работа со звуком: Grandfather61



[+] MediaInfo:

General
Unique ID                                : 105310697437339881277534316376399356630 (0x4F3A1A41C20D5D62E0E7815993C922D6)
Complete name                            : G:The.Watch.2021.S01.1080p.WEB-DL.DDP5.1.LostFilmThe.Watch.2021.S01E01.1080p.WEB-DL.DDP5.1.LostFilm.mkv
Format                                   : Matroska
Format version                           : Version 4
File size                                : 2.86 GiB
Duration                                 : 43 min 10 s
Overall bit rate                         : 9 471 kb/s
Encoded date                             : UTC 2021-01-08 08:53:13
Writing application                      : mkvmerge v51.0.0 ('I Wish') 64-bit
Writing library                          : libebml v1.4.0 + libmatroska v1.6.2

Video
ID                                       : 1
Format                                   : AVC
Format/Info                              : Advanced Video Codec
Format profile                           : High@L4
Format settings                          : CABAC / 4 Ref Frames
Format settings, CABAC                   : Yes
Format settings, Reference frames        : 4 frames
Codec ID                                 : V_MPEG4/ISO/AVC
Duration                                 : 43 min 10 s
Bit rate mode                            : Constant
Bit rate                                 : 8 189 kb/s
Nominal bit rate                         : 10 000 kb/s
Width                                    : 1 920 pixels
Height                                   : 1 080 pixels
Display aspect ratio                     : 16:9
Frame rate mode                          : Constant
Frame rate                               : 25.000 FPS
Color space                              : YUV
Chroma subsampling                       : 4:2:0
Bit depth                                : 8 bits
Scan type                                : Progressive
Bits/(Pixel*Frame)                       : 0.158
Stream size                              : 2.47 GiB (86%)
Language                                 : English
Default                                  : Yes
Forced                                   : No
Color range                              : Limited
Color primaries                          : BT.709
Transfer characteristics                 : BT.709
Matrix coefficients                      : BT.709

Audio #1
ID                                       : 2
Format                                   : AC-3
Format/Info                              : Audio Coding 3
Commercial name                          : Dolby Digital
Codec ID                                 : A_AC3
Duration                                 : 43 min 10 s
Bit rate mode                            : Constant
Bit rate                                 : 640 kb/s
Channel(s)                               : 6 channels
Channel layout                           : L R C LFE Ls Rs
Sampling rate                            : 48.0 kHz
Frame rate                               : 31.250 FPS (1536 SPF)
Compression mode                         : Lossy
Stream size                              : 198 MiB (7%)
Title                                    : LostFilm
Language                                 : Russian
Default                                  : No
Forced                                   : No

Audio #2
ID                                       : 3
Format                                   : E-AC-3
Format/Info                              : Enhanced AC-3
Commercial name                          : Dolby Digital Plus
Codec ID                                 : A_EAC3
Duration                                 : 43 min 10 s
Bit rate mode                            : Constant
Bit rate                                 : 640 kb/s
Channel(s)                               : 6 channels
Channel layout                           : L R C LFE Ls Rs
Sampling rate                            : 48.0 kHz
Frame rate                               : 31.250 FPS (1536 SPF)
Compression mode                         : Lossy
Stream size                              : 198 MiB (7%)
Language                                 : English
Default                                  : Yes
Forced                                   : No

Text #1
ID                                       : 4
Format                                   : UTF-8
Codec ID                                 : S_TEXT/UTF8
Codec ID/Info                            : UTF-8 Plain Text
Duration                                 : 38 min 38 s
Bit rate                                 : 5 b/s
Count of elements                        : 32
Stream size                              : 1.65 KiB (0%)
Title                                    : forced
Language                                 : Russian
Default                                  : Yes
Forced                                   : No

Text #2
ID                                       : 5
Format                                   : UTF-8
Codec ID                                 : S_TEXT/UTF8
Codec ID/Info                            : UTF-8 Plain Text
Duration                                 : 42 min 27 s
Bit rate                                 : 103 b/s
Count of elements                        : 706
Stream size                              : 32.3 KiB (0%)
Language                                 : Russian
Default                                  : No
Forced                                   : No

Text #3
ID                                       : 6
Format                                   : UTF-8
Codec ID                                 : S_TEXT/UTF8
Codec ID/Info                            : UTF-8 Plain Text
Duration                                 : 42 min 19 s
Bit rate                                 : 68 b/s
Count of elements                        : 719
Stream size                              : 21.2 KiB (0%)
Title                                    : SDH
Language                                 : English
Default                                  : No
Forced                                   : No




Скриншоты:
[+] Всего файлов в раздаче - 4:
The.Watch.2021.S01E01.1080p.WEB-DL.DDP5.1.LostFilm.mkv2.86 GB
The.Watch.2021.S01E02.1080p.WEB-DL.DDP5.1.LostFilm.mkv2.66 GB
The.Watch.2021.S01E03.1080p.WEB-DL.DDP5.1.LostFilm.mkv2.59 GB
The.Watch.2021.S01E04.1080p.WEB-DL.DDP5.1.LostFilm.mkv2.82 GB

Показать еще раздачи по запросу стража:
2021-02-18 U Стража / The Watch [S01] (2021) WEB-DL 1080p | LostFilm 23.27 GB ↑ 36 ↓ 30
2021-02-17 U Стража / The Watch [S01] (2020) WEB-DL 1080p | Novamedia, Кубик в Кубе 23.20 GB ↑ 39 ↓ 52
2021-02-16 U Стража / The Watch [S01] (2020) WEBRip от Kerob | L 3.77 GB ↑ 41 ↓ 19
2021-02-02 U Стража / The Watch [01x01-06 из 08] (2020) WEB-DL 1080p | Novamedia, Кубик в Кубе 16.98 GB ↑ 38 ↓ 88
2021-01-27 U Стража / The Watch [01x01-05 из 08] (2020) WEB-DLRip | Novamedia 2.94 GB ↑ 66 ↓ 73
2021-01-21 U Стража / The Watch [01x01-04 из 08] (2020) WEB-DLRip | Novamedia 2.35 GB ↑ 50 ↓ 10
2021-01-18 U Стража / The Watch [01x01-04 из 08] (2020) WEB-DL 1080p | Novamedia, Кубик в Кубе 10.89 GB ↑ 38 ↓ 126

Отзывы
Зарегистрируйтесь чтобы добавить комментарий.
Загрузите программу
  uTorrent.exe
Обратная связь
Copyleft ©