↑↓torrent.by
Поиск
Логин: Регистрация
Пароль: Восстановить пароль

Непокоренные [01-04 из 04] (2020) WEBRip 1080p

Скачать nepokorennye-01-04-iz-2020-webrip-1080p.torrent
U Магнитная ссылка Размер: 5.63 GB Раздают: 29 Качают: 11 Добавлен: 2021-01-21 06:29:32
Непокоренные [01-04 из 04] (2020) WEBRip 1080p

Название: Непокоренные
Год выхода: 2020
Жанр: Документальный, ВОВ, история
Режиссер: Юлия Макарова

О фильме:
Пленники фашистских концлагерей - обречены, но не сломлены. Истории их подвигов - пример для потомков, но про них мало рассказывают. Лейтенант Красной Армии Александр Печерский совершил то, что не удалось никому ни до, ни после - уничтожить десяток эсэсовцев и вывести на свободу больше трёхсот заключённых лагеря смерти "Собибор". 20-й блок концлагеря Маутхаузен называли "блоком смерти в лагере смерти". Там были самые жестокие условия содержания. Однако советские офицеры решились на побег. "Братский Союз военнопленных" - так называлась самая масштабная сеть антифашистского сопротивления на территории Германии. Подпольщики планировали захват Мюнхена - второго по величине города нацисткой Германии. История появления единственного за всю Вторую мировую войну женского партизанского отряда "Родина": белорусские девушки, угнанные на принудительные работы, сумели бежать из лагеря и сражаться наравне с мужчинами вплоть до освобождения Франции.

Страна: Россия
Студия: т/к "Звезда", НКО "Фонд памяти Александра Печерского"
Продолжительность: 4 x ~ 00:38:00
Язык: Русский

Автор релиза:
Примечание: Без рекламы

Файл
Формат: MKV
Качество: WEBRip 1080p
Видео: MPEG-4 AVC, ~ 5200 Кбит/с, 1920x1080, 25 кадр/с
Звук: ААС, 1 ch, ~ 128 Кбит/с
Субтитры: Отсутствуют

Семпл
[+] Содержание
01. Александр Печерский
История подвига руководителя восстания в лагере смерти «Собибор». «Я крикнул: "Ура! Вперед!" - люди рванули к центральным воротам»: в своих воспоминаниях руководитель восстания в лагере смерти «Собибор» Александр Печерский описывает его ход до мельчайших деталей. Прежде, чем самому покинуть лагерь, он сделал попытку ликвидировать коменданта одного из секторов - эсэсовца Карла Френцеля, но не успел. Пройдут годы, и Печерский будет свидетельствовать против Френцеля в суде, и сделает все, чтобы ни один нацист «Собибора» не ушел от возмездия.

02. Братский союз
Подвиг членов БСВ в СССР не был широко известен, но в немецких архивах остались уникальные документы, проливающие свет на историю подпольной борьбы в лагере для военнопленных. Обезвредить лагерную охрану, затем напасть на зенитную батарею и, захватив орудия, двинуться в центр Мюнхена; занять главный телеграф, почтамт и другие важнейшие здания - подобные планы в самом сердце нацистской Германии разрабатывала группа советских офицеров в лагере для военнопленных. Но почему подвиг членов Братского союза военнопленных в Советском Союзе не был широко известен? Какие уникальные документы, проливающие свет на историю подпольной борьбы в лагере для военнопленных, авторы фильма разыскали в немецких архивах?

03. Герои «блока смерти»
В ночь на 3 февраля 1945 года в концентрационном лагере «Маутхаузен» раздались яростные крики: многоголосое русское «Ура!», а затем - «Вперед, за Родину!» донеслись из барака №20 - блока смертников. Во двор хлынула толпа узников. Они захватили вышки часовых, преодолели лагерную стену и вырвались на свободу - 419 человек. С рассветом на беглецов началась настоящая охота. Как добропорядочные австрийские бюргеры оказались добровольными помощниками в этой охоте? И кто из местного населения с риском для жизни все-таки укрывал от нацистов сбежавших узников?

04. Они сражались за «Родину»
20 июня 1966 года в Москву с официальным визитом прибыл президент Франции Шарль де Голль. В аэропорту высокого гостя встречали самые именитые представители советской культурно-политической элиты. Однако были среди встречающих и две мало кому известные женщины из Белоруссии - Надежда Лисовец и Розалия Фридзон. Пригласить их была инициатива самого президента. Де Голль первым приветствовал женщин и отдал честь, застыв на несколько секунд с рукой у козырька. Почему жительницы Белоруссии воевали во французском Сопротивлении? Причем были не рядовыми, а офицерами французской армии и кавалерами Военного Креста?



[+] MI
Общее
Уникальный идентификатор                 : 111576492498047210306092881246810243445 (0x53F0D9CDF96CFD0A8F760CCE0E338175)
Полное имя                               : D:Непокоренные.2020.WEB.1080p-ylnian1.Александр.Печерский.mkv
Формат                                   : Matroska
Версия формата                           : Version 4
Размер файла                             : 1,40 Гбайт
Продолжительность                        : 37 м. 35 с.
Общий поток                              : 5 349 Кбит/сек
Дата кодирования                         : UTC 2021-01-20 09:11:48
Программа кодирования                    : mkvmerge v51.0.0 ('I Wish') 64-bit
Библиотека кодирования                   : libebml v1.4.0 + libmatroska v1.6.2

Видео
Идентификатор                            : 1
Формат                                   : AVC
Формат/Информация                        : Advanced Video Codec
Профиль формата                          : Baseline@L3
Настройки формата                        : 1 Ref Frames
Параметр CABAC формата                   : Нет
Параметр RefFrames формата               : 1 кадр
Идентификатор кодека                     : V_MPEG4/ISO/AVC
Продолжительность                        : 37 м. 35 с.
Битрейт                                  : 5 200 Кбит/сек
Ширина                                   : 1 920 пикселей
Высота                                   : 1 080 пикселей
Соотношение сторон                       : 16:9
Режим частоты кадров                     : Постоянный
Частота кадров                           : 25,000 кадров/сек
Цветовое пространство                    : YUV
Субдискретизация насыщенности            : 4:2:0
Битовая глубина                          : 8 бит
Тип развёртки                            : Прогрессивная
Бит/(Пиксели*Кадры)                      : 0.100
Размер потока                            : 1,37 Гбайт (98%)
Библиотека кодирования                   : x264 core 157 r2935 545de2f
Настройки программы                      : cabac=0 / ref=1 / deblock=1:0:0 / analyse=0x1:0x111 / me=hex / subme=8 / psy=1 / psy_rd=1.00:0.00 / mixed_ref=0 / me_range=16 / chroma_me=1 / trellis=2 / 8x8dct=0 / cqm=0 / deadzone=21,11 / fast_pskip=1 / chroma_qp_offset=-2 / threads=34 / lookahead_threads=5 / sliced_threads=0 / nr=0 / decimate=1 / interlaced=0 / bluray_compat=0 / constrained_intra=0 / bframes=0 / weightp=0 / keyint=96 / keyint_min=49 / scenecut=0 / intra_refresh=0 / rc_lookahead=50 / rc=abr / mbtree=1 / bitrate=5200 / ratetol=1.0 / qcomp=0.60 / qpmin=0 / qpmax=69 / qpstep=4 / ip_ratio=1.40 / aq=1:1.00
Язык                                     : Russian
Default                                  : Да
Forced                                   : Нет

Аудио
Идентификатор                            : 2
Формат                                   : AAC LC
Формат/Информация                        : Advanced Audio Codec Low Complexity
Идентификатор кодека                     : A_AAC-2
Продолжительность                        : 37 м. 35 с.
Битрейт                                  : 129 Кбит/сек
Каналы                                   : 1 канал
Channel layout                           : C
Частота                                  : 48,0 КГц
Частота кадров                           : 46,875 кадров/сек (1024 SPF)
Метод сжатия                             : С потерями
Задержка видео                           : -21 мс.
Размер потока                            : 34,6 Мбайт (2%)
Язык                                     : Russian
Default                                  : Да
Forced                                   : Нет



Скриншоты:
[+] Всего файлов в раздаче - 4:
01.Александр.Печерский.mkv1.40 GB
02.Братский.союз.mkv1.44 GB
03.Герои.блока.смерти.mkv1.38 GB
04.Они.сражались.за.Родину.mkv1.40 GB

Отзывы
ablom4ik90
какой WEBRip 1080p, что вы тут тень на плетень городите,обычный Sat Rip.

Зарегистрируйтесь чтобы добавить комментарий.
Загрузите программу
  uTorrent.exe
Обратная связь
Copyleft ©