↑↓torrent.by
Поиск
Логин: Регистрация
Пароль: Восстановить пароль

Ищу козла (2020) WEBRip 1080p

Скачать ischu-kozla-2020-webrip-1080p.torrent
U Магнитная ссылка Размер: 1.16 GB Раздают: 125 Качают: 87 Добавлен: 2021-01-21 14:34:29
Ищу козла (2020) WEBRip 1080p

Название: Ищу козла
Год выхода: 2020
Жанр: Комедия, короткометражка
Режиссер: Анна Колчина, Алексей Кузмин-Тарасов
В ролях: Аглая Тарасова, Светлана Немоляева, Фёдор Бондарчук, Агриппина Стеклова, Екатерина Варнава, Вероника Тимофеева, Михаил Ефремов, Александр Гудков, Иван Макаревич, Константин Лузиньян

О фильме:
Фильм основан на реальных событиях. Эта история про девушку, которая мечтает работать в кино. Галина смело берётся за новую интересную работу. Ассистент продюсера — человек маленький, но решает глобальные задачи. Наконец она получает своё первое долгожданное задание, но оно оказывается весьма необычным… Именно Галя должна до конца дня найти для съёмок козла, коричневого и с рогами.

Страна: Россия
Студия: ООО "Флайсаунд"
Продолжительность: 00:23:58
Язык: Русский

Автор релиза:
Примечание: Без рекламы

Файл
Формат: MKV
Качество: WEBRip 1080p
Видео: MPEG-4 AVC, 6653 Кбит/с, 1920x1080, 25 Кадр/с
Звук: AАС, 2 ch, 250 Кбит/с
Субтитры: Отсутствуют

Семпл


[+] MI
Общее
Уникальный идентификатор                 : 338442521632968043525984036934022767208 (0xFE9DA89FB0CDD39158B9BC112F3EA268)
Полное имя                               : D:Ищу.козла.2020.WEB.1080p-ylnian.mkv
Формат                                   : Matroska
Версия формата                           : Version 4
Размер файла                             : 1,16 Гбайт
Продолжительность                        : 23 м. 58 с.
Общий поток                              : 6 906 Кбит/сек
Дата кодирования                         : UTC 2021-01-21 10:24:47
Программа кодирования                    : mkvmerge v51.0.0 ('I Wish') 64-bit
Библиотека кодирования                   : libebml v1.4.0 + libmatroska v1.6.2

Видео
Идентификатор                            : 1
Формат                                   : AVC
Формат/Информация                        : Advanced Video Codec
Профиль формата                          : High@L4
Настройки формата                        : CABAC / 4 Ref Frames
Параметр CABAC формата                   : Да
Параметр RefFrames формата               : 4 кадра
Параметр GOP формата                     : M=2, N=14
Идентификатор кодека                     : V_MPEG4/ISO/AVC
Продолжительность                        : 23 м. 58 с.
Битрейт                                  : 6 653 Кбит/сек
Ширина                                   : 1 920 пикселей
Высота                                   : 1 080 пикселей
Соотношение сторон                       : 16:9
Режим частоты кадров                     : Постоянный
Частота кадров                           : 25,000 кадров/сек
Цветовое пространство                    : YUV
Субдискретизация насыщенности            : 4:2:0
Битовая глубина                          : 8 бит
Тип развёртки                            : Прогрессивная
Бит/(Пиксели*Кадры)                      : 0.128
Размер потока                            : 1,11 Гбайт (96%)
Язык                                     : Russian
Default                                  : Да
Forced                                   : Нет
Цветовой диапазон                        : Limited
Основные цвета                           : BT.709
Характеристики трансфера                 : BT.709
Коэффициенты матрицы                     : BT.709

Аудио
Идентификатор                            : 2
Формат                                   : AAC LC
Формат/Информация                        : Advanced Audio Codec Low Complexity
Идентификатор кодека                     : A_AAC-2
Продолжительность                        : 23 м. 58 с.
Битрейт                                  : 250 Кбит/сек
Каналы                                   : 2 канала
Channel layout                           : L R
Частота                                  : 48,0 КГц
Частота кадров                           : 46,875 кадров/сек (1024 SPF)
Метод сжатия                             : С потерями
Размер потока                            : 42,9 Мбайт (4%)
Язык                                     : Russian
Default                                  : Да
Forced                                   : Нет



Скриншоты:
[+] Всего файлов в раздаче - 1:
Ищу.козла.2020.WEB.1080p-ylnian.mkv1.16 GB

Похожие раздачи по запросу - козла:
2021-01-21 U Ищу козла (2020) WEBRip 308.83 MB ↑ 288 ↓ 50

Отзывы
Tirionking
норм.

r29blr
Ни с каким козлом лучше не связываться .

Зарегистрируйтесь чтобы добавить комментарий.
Загрузите программу
  uTorrent.exe
Обратная связь
Copyleft ©