↑↓torrent.by
Поиск
Логин: Регистрация
Пароль: Восстановить пароль

Мистер Олимпия / Bigger (2018) BDRip 1080p от OlLanDGroup | iTunes

Скачать mister-olimpiya-bigger-2018-bdrip-1080p-ot-ollandgroup-itunes.torrent
U Магнитная ссылка Размер: 7.08 GB Раздают: 63 Качают: 32 Добавлен: 2021-01-21 14:35:08
Мистер Олимпия / Bigger (2018) BDRip 1080p от OlLanDGroup | iTunes

Название: Мистер Олимпия
Оригинальное название: Bigger
Год выпуска: 2018
Жанр:  Биография, драма, реальные события
Выпущено: США, Bee Holder Productions, Red Sky Studios
Режиссер: Джордж Галло
В ролях: Джулианна Хаф, Тайлер Хэклин, Колтон Хэйнс, Макс Мартини, Кевин Дюран, ДиДжей Куаллс, Виктория Джастис, Стив Гуттенберг, Анейрин Барнард, Роберт Форстер

О фильме: Братья Джо и Бен Уайдеры — профессиональные тренеры, всю жизнь занимавшиеся популяризацией бодибилдинга. В 1946 году они основали Международную федерацию бодибилдинга, которая впоследствии выросла в мощную и влиятельную организацию. Именно они обнаружили в Австрии молодого Арнольда Шварценеггера и уговорили его переехать в США. Фильм расскажет, как строилась империя Уайдеров и скольким им пришлось пожертвовать, чтобы пробиться наверх.

Качество: BDRip (1080p)
Видео: MPEG-4 AVC, 9067 Кбит/с, 1920x804, 23.976 кадр/с
Аудио: Русский (AC3, 6 ch, 384 Кбит/с)
Размер: 7.08 ГБ
Продолжительность: 01:47:13
Перевод: Дублированный

Озвучивание - Дублированное (iTunes)
Сохранены оригинальные чаптеры как на Blu-Ray.

Релиз:  Rip by:


[+] x264

x264 [info]: frame I:1067  Avg QP:11.19  size:195651
x264 [info]: frame P:36973 Avg QP:13.84  size: 87713
x264 [info]: frame B:116233 Avg QP:15.41  size: 33005
x264 [info]: consecutive B-frames:  2.1%  4.4% 12.7% 26.4% 16.9% 33.4%  3.0%  0.4%  0.2%  0.0%  0.5%
x264 [info]: mb I  I16..4: 24.6% 46.8% 28.6%
x264 [info]: mb P  I16..4:  3.8% 30.4%  5.1%  P16..4: 21.1% 24.0%  7.7%  1.2%  0.1%    skip: 6.5%
x264 [info]: mb B  I16..4:  0.9%  5.7%  0.8%  B16..8: 30.3% 19.6%  4.0%  direct: 9.8%  skip:28.9%  L0:42.2% L1:44.4% BI:13.4%
x264 [info]: 8x8 transform intra:75.9% inter:53.5%
x264 [info]: direct mvs  spatial:99.3% temporal:0.7%
x264 [info]: coded y,uvDC,uvAC intra: 85.5% 88.9% 76.8% inter: 30.3% 31.6% 16.1%
x264 [info]: i16 v,h,dc,p: 16% 10% 21% 54%
x264 [info]: i8 v,h,dc,ddl,ddr,vr,hd,vl,hu: 13% 11% 19%  8%  9% 10%  9% 10% 11%
x264 [info]: i4 v,h,dc,ddl,ddr,vr,hd,vl,hu: 29% 12% 20%  6%  7%  8%  6%  6%  6%
x264 [info]: i8c dc,h,v,p: 51% 23% 17%  9%
x264 [info]: Weighted P-Frames: Y:3.4% UV:1.8%
x264 [info]: ref P L0: 53.6%  8.3% 20.9%  8.5%  7.8%  0.9%  0.0%
x264 [info]: ref B L0: 83.7% 11.9%  3.3%  1.0%
x264 [info]: ref B L1: 94.4%  5.6%
x264 [info]: kb/s:9061.27



[+] Инфо-файл

Общее
Уникальный идентификатор                 : 254981727533109391488237226472524354497 (0xBFD3B1C6586AA0EDAAE10F50BC2213C1)
Полное имя                               : D:ЗагрузкиBigger.2018.x264.BDRip.(1080p).OlLanDGroup.mkv
Формат                                   : Matroska
Версия формата                           : Version 4 / Version 2
Размер файла                             : 7,08 Гбайт
Продолжительность                        : 1 ч. 47 м.
Общий поток                              : 9448 Кбит/сек
Название фильма                          : Мистер Олимпия.2018.Rip by: ollan
Дата кодирования                         : UTC 2021-01-21 08:22:12
Программа кодирования                    : mkvmerge v6.5.0 ('Isn't she lovely') built on Oct 20 2013 12:50:05
Библиотека кодирования                   : libebml v1.3.0 + libmatroska v1.4.1
Обложка                                  : Yes
Attachments                              : Cover - Bigger.png

Видео
Идентификатор                            : 1
Формат                                   : AVC
Формат/Информация                        : Advanced Video Codec
Профиль формата                          : High@L4.1
Настройки формата                        : CABAC / 5 Ref Frames
Параметр CABAC формата                   : Да
Параметр ReFrames формата                : 5 кадров
Идентификатор кодека                     : V_MPEG4/ISO/AVC
Продолжительность                        : 1 ч. 47 м.
Битрейт                                  : 9067 Кбит/сек
Ширина                                   : 1920 пикселей
Высота                                   : 804 пикселя
Соотношение сторон                       : 2,40:1
Режим частоты кадров                     : Постоянный
Частота кадров                           : 23,976 (24000/1001) кадра/сек
Цветовое пространство                    : YUV
Субдискретизация насыщенности            : 4:2:0
Битовая глубина                          : 8 бит
Тип развёртки                            : Прогрессивная
Бит/(Пиксели*Кадры)                      : 0.245
Размер потока                            : 6,65 Гбайт (94%)
Библиотека кодирования                   : x264 core 146 r2538 121396c
Настройки программы                      : cabac=1 / ref=5 / deblock=1:-3:-3 / analyse=0x3:0x133 / me=umh / subme=11 / psy=1 / psy_rd=0.95:0.05 / mixed_ref=1 / me_range=64 / chroma_me=1 / trellis=2 / 8x8dct=1 / cqm=0 / deadzone=21,11 / fast_pskip=0 / chroma_qp_offset=-3 / threads=12 / lookahead_threads=3 / sliced_threads=0 / nr=0 / decimate=0 / interlaced=0 / bluray_compat=0 / constrained_intra=0 / bframes=10 / b_pyramid=2 / b_adapt=2 / b_bias=0 / direct=3 / weightb=1 / open_gop=0 / weightp=2 / keyint=240 / keyint_min=23 / scenecut=40 / intra_refresh=0 / rc_lookahead=40 / rc=2pass / mbtree=0 / bitrate=9067 / ratetol=1.0 / qcomp=0.60 / qpmin=0 / qpmax=69 / qpstep=4 / cplxblur=20.0 / qblur=0.5 / vbv_maxrate=50000 / vbv_bufsize=62500 / nal_hrd=none / filler=0 / ip_ratio=1.40 / pb_ratio=1.30 / aq=1:1.00
Язык                                     : English
Default                                  : Да
Forced                                   : Нет

Аудио
Идентификатор                            : 2
Формат                                   : AC-3
Формат/Информация                        : Audio Coding 3
Идентификатор кодека                     : A_AC3
Продолжительность                        : 1 ч. 47 м.
Вид битрейта                             : Постоянный
Битрейт                                  : 384 Кбит/сек
Каналы                                   : 6 каналов
Расположение каналов                     : Front: L C R, Side: L R, LFE
Частота                                  : 48,0 КГц
Частота кадров                           : 31,250 кадров/сек (1536 SPF)
Битовая глубина                          : 16 бит
Метод сжатия                             : С потерями
Размер потока                            : 295 Мбайт (4%)
Service kind                             : Complete Main
Default                                  : Да
Forced                                   : Нет

Меню
00:00:00.000                             : en:Chapter 01
00:01:08.941                             : en:Chapter 02
00:20:11.125                             : en:Chapter 03
00:41:13.137                             : en:Chapter 04
01:01:13.835                             : en:Chapter 05
01:20:54.474                             : en:Chapter 06
01:43:11.435                             : en:Chapter 07
01:47:13.467                             : en:Chapter 08




Скриншоты:
[+] Всего файлов в раздаче - 1:
Bigger.2018.x264.BDRip.(1080p).OlLanDGroup.mkv7.08 GB

Похожие раздачи по запросу - мистер:
2021-01-21 U Мистер Олимпия / Bigger (2018) BDRip от MegaPeer | iTunes 1.41 GB ↑ 101 ↓ 29
2021-01-08 U Мистер Бин / Mr. Bean [S01] (1990-1995) DVDRip-AVC | P 8.00 GB ↑ 41 ↓ 30
2020-11-17 U Мистер Джангл и рождественское путешествие / Jingle Jangle: A Christmas Journey (2020) WEB-DL 1080p | Netflix 5.84 GB ↑ 93 ↓ 37

Отзывы
Зарегистрируйтесь чтобы добавить комментарий.
Загрузите программу
  uTorrent.exe
Обратная связь
Copyleft ©