↑↓torrent.by
Поиск
Логин: Регистрация
Пароль: Восстановить пароль

257 причин, чтобы жить [S02] (2020) WEBRip от GeneralFilm

Скачать 257-prichin-chtoby-zhit-s02-2020-webrip-ot-generalfilm.torrent
U Магнитная ссылка Размер: 3.54 GB Раздают: 32 Качают: 42 Добавлен: 2021-01-21 14:35:10
257 причин, чтобы жить [S02] (2020) WEBRip от GeneralFilm

Оригинальное название: 257 причин, чтобы жить - 2
Год выпуска: 2020
Жанр:  Драма, комедия
Выпущено: Россия, START STUDIO, СУПЕР продакшн, Киностудия "Yellow, Black and White"
Режиссер: Максим Свешников
В ролях: Полина Максимова, Анна Невская, Сергей Годин, Роман Маякин, Анастасия Попова (II), Дарья Руденок, Егор Корешков, Мария Фомина, Юлия Топольницкая, Максим Лагашкин, Тимоти Сэлл, Маргарита Дьяченкова

О фильме: День, когда 30-летняя Женя Короткова победила тяжелую болезнь, стал не самым счастливым, а самым кошмарным в ее жизни. Оказалось, что здоровой она не нужна ни своему парню, который был с ней из жалости, ни сестре, которая умело зарабатывала на благотворительных сборах. А коллеги по работе и вовсе не надеялись на выздоровление Жени и не ждали ее возвращения. Как найти в себе силы начать новую жизнь, если она так больно бьет по голове? Ответом становится дневник, в котором Женя случайно находит список из 257 желаний - сложных и простых, приземленных и возвышенных, серьезных и по-детски глупых. Все это Женя хотела исполнить после выздоровления, а, значит, сейчас у нее появилось 257 причин не бояться трудностей, взглянуть на мир по-другому, начать жить на полную катушку и стать, наконец, счастливой!

Качество: WEBRip
Видео: XviD build 73, 720x304 (2.35:1), 25.000 fps, ~ 1400 Kbps (~ 0.190 bit/pixel)
Аудио: 48.0 kHz, MP3, 2/0 ch, 192 kbps
Продолжительность: 13 x ~ 00:25:00
Перевод: Не требуется [Русский]
Cубтитры: нет

Внимание! Версия 18+. Присутствует ненормативная лексика.

Релиз:
[+] MediaInfo
General
Complete name               : D:Razdachi257.Prichin.Choby.Zhitj.s02.2020.WEBRip.GeneralFilms02.e02.257.Prichin.avi
Format                      : AVI
Format/Info                 : Audio Video Interleave
File size                   : 279 MiB
Duration                    : 23 min 36 s
Overall bit rate            : 1 651 kb/s
Writing application         : VirtualDubMod 1.5.10.3 | www.virtualdub-fr.org || (build 2550/release)
Writing library             : VirtualDubMod build 2550/release

Video
ID                          : 0
Format                      : MPEG-4 Visual
Format profile              : Advanced Simple@L5
Format settings             : BVOP1 / Custom Matrix
Format settings, BVOP       : 1
Format settings, QPel       : No
Format settings, GMC        : No warppoints
Format settings, Matrix     : Custom
Codec ID                    : XVID
Codec ID/Hint               : XviD
Duration                    : 23 min 36 s
Bit rate                    : 1 449 kb/s
Width                       : 720 pixels
Height                      : 304 pixels
Display aspect ratio        : 2.35:1
Frame rate                  : 25.000 FPS
Color space                 : YUV
Chroma subsampling          : 4:2:0
Bit depth                   : 8 bits
Scan type                   : Progressive
Compression mode            : Lossy
Bits/(Pixel*Frame)          : 0.265
Stream size                 : 245 MiB (88%)
Writing library             : XviD 73

Audio
ID                          : 1
Format                      : MPEG Audio
Format version              : Version 1
Format profile              : Layer 3
Codec ID                    : 55
Codec ID/Hint               : MP3
Duration                    : 23 min 36 s
Bit rate mode               : Constant
Bit rate                    : 192 kb/s
Channel(s)                  : 2 channels
Sampling rate               : 48.0 kHz
Frame rate                  : 41.667 FPS (1152 SPF)
Compression mode            : Lossy
Stream size                 : 32.4 MiB (12%)
Alignment                   : Aligned on interleaves
Interleave, duration        : 40  ms (1.00 video frame)
Interleave, preload duratio : 504  ms
Writing library             : LAME3.99r
Encoding settings           : -m s -V 4 -q 2 -lowpass 18.6 -b 192



Скриншоты:
[+] Всего файлов в раздаче - 13:
s02.e01.257.Prichin.avi278.94 MB
s02.e02.257.Prichin.avi278.76 MB
s02.e03.257.Prichin.avi278.74 MB
s02.e04.257.Prichin.avi278.93 MB
s02.e05.257.Prichin.avi278.79 MB
s02.e06.257.Prichin.avi278.94 MB
s02.e07.257.Prichin.avi278.94 MB
s02.e08.257.Prichin.avi278.98 MB
s02.e09.257.Prichin.avi278.77 MB
s02.e10.257.Prichin.avi278.81 MB
s02.e11.257.Prichin.avi278.74 MB
s02.e12.257.Prichin.avi278.89 MB
s02.e13.257.Prichin.avi278.89 MB

Похожие раздачи по запросу - причин:
2021-01-21 U 257 причин, чтобы жить [S02] (2020) WEBRip от Files-х 3.96 GB ↑ 89 ↓ 79
2021-01-21 U 257 причин, чтобы жить [S02] (2020) WEBRip 720p 8.05 GB ↑ 75 ↓ 153
2021-01-21 U 257 причин, чтобы жить [S02] (2020) WEBRip 1080p 14.48 GB ↑ 29 ↓ 108
2021-01-14 U 257 причин, чтобы жить [02x01-12 из 13] (2020) WEBRip от GeneralFilm 3.27 GB ↑ 92 ↓ 189
2020-11-04 U 257 причин, чтобы жить [02х01-02] (2020) WEBRip от Files-х 642.11 MB ↑ 81 ↓ 21
2020-06-11 U 257 причин, чтобы жить [01-13 из 13] (2020) WEBRip-AVC от Files-х 3.87 GB ↑ 605 ↓ 161

Отзывы
Зарегистрируйтесь чтобы добавить комментарий.
Загрузите программу
  uTorrent.exe
Обратная связь
Copyleft ©