↑↓torrent.by
Поиск
Логин: Регистрация
Пароль: Восстановить пароль

Афера по-итальянски / Gli uomini d'oro (2019) WEB-DL 1080p от селезень | iTunes

Скачать afera-po-italyanski-gli-uomini-d-oro-2019-web-dl-1080p-ot-selezen-itunes.torrent
U Магнитная ссылка Размер: 3.86 GB Раздают: 151 Качают: 31 Добавлен: 2021-01-22 04:34:46
Афера по-итальянски / Gli uomini d'oro (2019) WEB-DL 1080p от селезень | iTunes

Название: Афера по-итальянски
Оригинальное название: Gli uomini d'oro
Год выхода: 2019
Жанр: Драма, криминал
Режиссер: Винченцо Альфьери
В ролях: Фабио Де Луиджи,Эдоардо Лео, Джампаоло Морелли, Джузеппе Рагоне, Мариэла Гаррига, Матильда Джоли, Сьюзи Лауде, Джанмарко Тоньяцци, Давид Манчини, Франческо Дзендзола

О фильме: Турин, 1996 год. Сотрудник почты Луиджи осознает, что из-за пенсионной реформы отодвигается его долгожданная ранняя пенсия. В отместку Луиджи решает ограбить вместе с коллегами инкассаторскую машину, которую он водил все эти годы, но в дело вмешиваются несколько преступников…

Страна: Италия
Студия: Direzione Generale per il Cinema, Film Commission Regione Piemonte, Italian International Film, Rai Cinema, Regione Piemonte

Продолжительность: 01:43:45
Перевод: Дублированный | iTunes

Качество: WEB-DL 1080p
Видео: MPEG-4 AVC, 1920x804, 4552 Кbit/s, 24.000 fps
Аудио #01: 48 kHz, AC3, 5.1, 384 Kbps | iTunes | RUS |
Аудио #02: 48 kHz, AC3, 5.1, 384 Kbps | Оригинал | ITA |
Субтитры: Отсутствуют

Релиз: Присоединяйся к:


[+] MI
General
Unique ID                   : 146163626219742110595742764774080474052 (0x6DF61727D76A0E4E672F455DC2E96BC4)
Complete name               : D:VideoGli.uomini.d.oro.2019.WEB-DL.1080p.seleZen.mkv
Format                      : Matroska
Format version              : Version 4
File size                   : 3.86 GiB
Duration                    : 1 h 43 min
Overall bit rate            : 5 322 kb/s
Movie name                  : Gli uomini d'oro 2019 from seleZen
Encoded date                : UTC 2021-01-21 17:20:39
Writing application         : mkvmerge v52.0.0 ('Secret For The Mad') 64-bit
Writing library             : libebml v1.4.1 + libmatroska v1.6.2

Video
ID                          : 1
Format                      : AVC
Format/Info                 : Advanced Video Codec
Format profile              : High@L4
Format settings             : CABAC / 5 Ref Frames
Format settings, CABAC      : Yes
Format settings, Reference  : 5 frames
Codec ID                    : V_MPEG4/ISO/AVC
Duration                    : 1 h 43 min
Bit rate                    : 4 552 kb/s
Width                       : 1 920 pixels
Height                      : 804 pixels
Display aspect ratio        : 2.40:1
Frame rate mode             : Constant
Frame rate                  : 24.000 FPS
Color space                 : YUV
Chroma subsampling          : 4:2:0
Bit depth                   : 8 bits
Scan type                   : Progressive
Bits/(Pixel*Frame)          : 0.123
Stream size                 : 3.30 GiB (86%)
Language                    : English
Default                     : Yes
Forced                      : No
Color range                 : Limited
Color primaries             : BT.709
Transfer characteristics    : BT.709
Matrix coefficients         : BT.709

Audio #1
ID                          : 2
Format                      : AC-3
Format/Info                 : Audio Coding 3
Commercial name             : Dolby Digital
Codec ID                    : A_AC3
Duration                    : 1 h 43 min
Bit rate mode               : Constant
Bit rate                    : 384 kb/s
Channel(s)                  : 6 channels
Channel layout              : L R C LFE Ls Rs
Sampling rate               : 48.0 kHz
Frame rate                  : 31.250 FPS (1536 SPF)
Compression mode            : Lossy
Stream size                 : 285 MiB (7%)
Title                       : iTunes
Language                    : Russian
Service kind                : Complete Main
Default                     : Yes
Forced                      : Yes

Audio #2
ID                          : 3
Format                      : AC-3
Format/Info                 : Audio Coding 3
Commercial name             : Dolby Digital
Codec ID                    : A_AC3
Duration                    : 1 h 43 min
Bit rate mode               : Constant
Bit rate                    : 384 kb/s
Channel(s)                  : 6 channels
Channel layout              : L R C LFE Ls Rs
Sampling rate               : 48.0 kHz
Frame rate                  : 31.250 FPS (1536 SPF)
Compression mode            : Lossy
Stream size                 : 285 MiB (7%)
Title                       : Original
Language                    : Italian
Service kind                : Complete Main
Default                     : No
Forced                      : No

Menu
00:00:00.000                : en:Глава 1
00:09:34.250                : en:Глава 2
00:17:18.333                : en:Глава 3
00:24:44.749                : en:Глава 4
00:33:05.124                : en:Глава 5
00:39:50.582                : en:Глава 6
00:47:25.207                : en:Глава 7
00:56:14.957                : en:Глава 8
01:03:34.290                : en:Глава 9
01:09:27.248                : en:Глава 10
01:15:48.331                : en:Глава 11
01:24:13.914                : en:Глава 12
01:30:52.080                : en:Глава 13



Скриншоты:
[+] Всего файлов в раздаче - 1:
Gli.uomini.d.oro.2019.WEB-DL.1080p.seleZen.mkv3.86 GB

Показать еще раздачи по запросу афера:
2021-01-23 U Афера по-итальянски / Gli uomini d'oro (2019) HDRip-AVC от MediaBit | iTunes 1.45 GB ↑ 66 ↓ 12
2021-01-23 U Афера по-итальянски / Gli uomini d'oro (2019) BDRip 1080p от ELEKTRI4KA | iTunes 7.69 GB ↑ 62 ↓ 24
2021-01-22 U Афера по-итальянски / Gli uomini d'oro (2019) HDRip от Twister & ExKinoRay | iTunes 1.46 GB ↑ 103 ↓ 7
2021-01-22 U Афера по-итальянски / Gli uomini d'oro (2019) HDRip от MegaPeer | iTunes 1.46 GB ↑ 89 ↓ 23
2020-10-29 U Афера века / El robo del siglo / The Heist of the Century (2020) WEB-DLRip-AVC | iTunes 1.49 GB ↑ 223 ↓ 46
2020-10-28 U Афера века / El robo del siglo / The Heist of the Century (2020) WEB-DLRip | iTunes 747.66 MB ↑ 353 ↓ 42
2020-10-28 U Афера века / El robo del siglo / The Heist of the Century (2020) WEB-DLRip | iTunes 1.46 GB ↑ 754 ↓ 222

Отзывы
Зарегистрируйтесь чтобы добавить комментарий.
Загрузите программу
  uTorrent.exe
Обратная связь
Copyleft ©