↑↓torrent.by
Поиск
Логин: Регистрация
Пароль: Восстановить пароль

Космические рейнджеры / Battle in Space: The Armada Attacks (2021) WEB-DL 1080p | P | iTunes

Скачать kosmicheskie-reyndzhery-battle-in-space-the-armada-attacks-2021-web-dl-1080p-p-itunes.torrent
U Магнитная ссылка Размер: 5.25 GB Раздают: 103 Качают: 50 Добавлен: 2021-01-22 04:34:55
Космические рейнджеры / Battle in Space: The Armada Attacks (2021) WEB-DL 1080p | P | iTunes

Название: Космические рейнджеры
Оригинальное название: Battle in Space: The Armada Attacks
Год выхода: 2021
Жанр: Фантастика, боевик
Режиссер: Санджай Эф Шарма, Эндрю Якш, Лукас Кендалл, Тоби Роуэл, Луис Тиноко
В ролях: Эндрю Трой, Дуглас Тэйт, Мелина Мэтьюс, Джесс Габор, Деклан Черчилль Картер, Юэ Чжи, Гэри Льюис (II), Миа Ларднер, Оливер Ларднер, Кэтлин Мейсон, Том Фаррах, Трип Хоуп, Эрик Палладино, Линда Уэйнриб, Кайл Мейсон, Скотт Робсон

О фильме:
В 2420 году, после того как инопланетяне и могущественные космические волшебники поработили человеческие деревни, группа повстанцев организовала контратаку против своих космических повелителей, пилотируя экипированные новейшим вооружением космические корабли.

Страна: США
Студия: Hewes Pictures
Продолжительность: 01:30:24
Перевод: Профессиональный многоголосый | iTunes

Файл
Кодек: x.264
Качество: WEB-DL 1080p | AMZN
Видео: MPEG-4 AVC, 7700 Kбит/с, 1920x1080, 23.976 кадр/с
Аудио #1: Русский (АС3, 2 ch, 192 Кбит/с, 48.0 KHz) Профессиональный (многоголосый, закадровый) iTunes
Аудио #2: Украинский (АС3, 2 ch, 192 Кбит/с, 48.0 KHz) Профессиональный (многоголосый, закадровый) iTunes
Аудио #3: Английский (E-АС3, 2 ch, 224 Кбит/с, 48.0 KHz)
Субтитры: английские
Трейлер




[+] MediaInfo
Источник: Battle.in.Space.The.Armada.Attacks.2021.1080p.AMZN.WEB-DL.DDP2.0.x264-NTG
General
Unique ID                      : 194400391280587106858092296209840178222 (0x9240274A41384D9B832E82FCD00B842E)
Complete name                  : Battle.in.Space.The.Armada.Attacks.2021.AMZN.WEB-DL.1080p.mkv
Format                         : Matroska
Format version                 : Version 4
File size                      : 5.25 GiB
Duration                       : 1 h 30 min
Overall bit rate               : 8 310 kb/s
Encoded date                   : UTC 2021-01-21 19:14:34
Writing application            : mkvmerge v7.1.0 ('Good Love') 64bit built on Jul 27 2014 13:06:55
Writing library                : libebml v1.3.0 + libmatroska v1.4.1

Video
ID                             : 1
Format                         : AVC
Format/Info                    : Advanced Video Codec
Format profile                 : High@L4
Format settings                : CABAC / 4 Ref Frames
Format settings, CABAC         : Yes
Format settings, Reference fra : 4 frames
Codec ID                       : V_MPEG4/ISO/AVC
Duration                       : 1 h 30 min
Bit rate mode                  : Constant
Bit rate                       : 7 700 kb/s
Nominal bit rate               : 10 000 kb/s
Width                          : 1 920 pixels
Height                         : 1 080 pixels
Display aspect ratio           : 16:9
Frame rate mode                : Constant
Frame rate                     : 23.976 (24000/1001) FPS
Color space                    : YUV
Chroma subsampling             : 4:2:0
Bit depth                      : 8 bits
Scan type                      : Progressive
Bits/(Pixel*Frame)             : 0.155
Stream size                    : 4.86 GiB (93%)
Language                       : English
Default                        : Yes
Forced                         : No
Color range                    : Limited
Color primaries                : BT.709
Transfer characteristics       : BT.709
Matrix coefficients            : BT.709

Audio #1
ID                             : 2
Format                         : AC-3
Format/Info                    : Audio Coding 3
Commercial name                : Dolby Digital
Codec ID                       : A_AC3
Duration                       : 1 h 30 min
Bit rate mode                  : Constant
Bit rate                       : 192 kb/s
Channel(s)                     : 2 channels
Channel layout                 : L R
Sampling rate                  : 48.0 kHz
Frame rate                     : 31.250 FPS (1536 SPF)
Compression mode               : Lossy
Stream size                    : 124 MiB (2%)
Title                          : iTunes
Language                       : Russian
Service kind                   : Complete Main
Default                        : Yes
Forced                         : No

Audio #2
ID                             : 3
Format                         : AC-3
Format/Info                    : Audio Coding 3
Commercial name                : Dolby Digital
Codec ID                       : A_AC3
Duration                       : 1 h 30 min
Bit rate mode                  : Constant
Bit rate                       : 192 kb/s
Channel(s)                     : 2 channels
Channel layout                 : L R
Sampling rate                  : 48.0 kHz
Frame rate                     : 31.250 FPS (1536 SPF)
Compression mode               : Lossy
Stream size                    : 124 MiB (2%)
Title                          : iTunes
Language                       : Ukrainian
Service kind                   : Complete Main
Default                        : No
Forced                         : No

Audio #3
ID                             : 4
Format                         : E-AC-3
Format/Info                    : Enhanced AC-3
Commercial name                : Dolby Digital Plus
Codec ID                       : A_EAC3
Duration                       : 1 h 30 min
Bit rate mode                  : Constant
Bit rate                       : 224 kb/s
Channel(s)                     : 2 channels
Channel layout                 : L R
Sampling rate                  : 48.0 kHz
Frame rate                     : 31.250 FPS (1536 SPF)
Compression mode               : Lossy
Stream size                    : 145 MiB (3%)
Language                       : English
Service kind                   : Complete Main
Default                        : No
Forced                         : No

Text
ID                             : 5
Format                         : UTF-8
Codec ID                       : S_TEXT/UTF8
Codec ID/Info                  : UTF-8 Plain Text
Duration                       : 1 h 25 min
Bit rate                       : 37 b/s
Count of elements              : 997
Stream size                    : 23.6 KiB (0%)
Title                          : SDH
Language                       : English
Default                        : No
Forced                         : No



Скриншоты:
[+] Всего файлов в раздаче - 1:
Battle.in.Space.The.Armada.Attacks.2021.AMZN.WEB-DL.1080p.mkv5.25 GB

Показать еще раздачи по запросу космические:
2021-02-15 U Космические уборщики / Space Sweepers / Seungriho (2021) WEBRip 720p | P, L2 4.33 GB ↑ 59 ↓ 6
2021-02-14 U Космические чистильщики / Космические уборщики / Space Sweepers / Seungriho (2021) WEB-DL-HEVC 1080p | HDR | P, L2 7.65 GB ↑ 90 ↓ 85
2021-02-14 U Космические чистильщики / Космические уборщики / Space Sweepers / Seungriho (2021) WEB-DLRip-AVC от MediaBit | HDRezka Studio 2.05 GB ↑ 45 ↓ 40
2021-02-13 U Космические чистильщики / Космические уборщики / Space Sweepers / Seungriho (2021) WEB-DLRip-AVC | P | HDRezka Studio 1.08 GB ↑ 96 ↓ 48
2021-02-13 U Космические уборщики / Space Sweepers / Seungriho (2021) WEB-DL 1080p | P, L2 8.90 GB ↑ 320 ↓ 454
2021-02-13 U Космические чистильщики / Космические уборщики / Space Sweepers / Seungriho (2021) WEB-DLRip от MegaPeer | HDRezka Studio 2.19 GB ↑ 493 ↓ 185
2021-02-13 U Космические чистильщики / Космические уборщики / Space Sweepers / Seungriho (2021) WEB-DLRip от MegaPeer | HDRezka Studio 1.46 GB ↑ 709 ↓ 219

Отзывы
Зарегистрируйтесь чтобы добавить комментарий.
Загрузите программу
  uTorrent.exe
Обратная связь
Copyleft ©