↑↓torrent.by
Поиск
Логин: Регистрация
Пароль: Восстановить пароль

Ванда/Вижн / WandaVision [01x01-02 из 09] (2021) WEB-DL 1080p | LostFilm

Скачать vanda-vizhn-wandavision-01x01-02-iz-09-2021-web-dl-1080p-lostfilm.torrent
U Магнитная ссылка Размер: 3.28 GB Раздают: 55 Качают: 8 Добавлен: 2021-01-22 04:35:54
Ванда/Вижн / WandaVision [01x01-02 из 09] (2021) WEB-DL 1080p | LostFilm

Информация о сериале
Название: Ванда/Вижн
Оригинальное название: WandaVision
Год выхода: 2021
Жанр: фантастика, фэнтези, боевик, драма, комедия, приключения
Режиссёр: Мэтт Шекман
В ролях: Пол Беттани, Элизабет Олсен, Кэт Деннингс, Кэтрин Хан, Рэндолл Пак, Шэйн Беренг, Грэй Гриффин, Тейона Паррис, Джолин Парди, Эмма Колфилд, Азиф Али, Брайан Брайтман, Аарон Гиллеспи, Шон Маклин, Фред Меламед, Энтони Молинари, Дебра Джо Рапп, Чейз Мэйсер, Винни Коста, Эмбер Мартинес и др.

Описание: Студия Marvel наконец готова дать старт Четвертой фазе своей супергеройской франшизы, но сделает она это самым необычным способом. Во-первых, из-за пандемии это случится на онлайн-платформе Disney+. Во-вторых, начало ей положит сюрреалистический, экстравагантный и вместе с тем очаровательный сериал «Ванда и Вижен». Этот супергеройский ромком расскажет о буднях фантастической супружеской пары — мутанта Алой Ведьмы и андроида Вижена, но сделает это в стилистике лучших ситкомов XX века. Каждая серия отправит зрителей в новое десятилетие — от черно-белых 50-х со съемкой при живой публике до современности. При этом никуда не денется крутой марвеловский экшен, а замысловатый сюжет будет водить зрителей за нос, подкидывая пасхалки и подсказки о том, что не так с сумеречной зоной, в которой очутились двое героев второго эшелона. Необычный формат, мощная экранная химия между Элизабет Олсен и Полом Беттани, практические, похожие на работу иллюзионистов спецэффекты, аутентичные эпохам наряды и атмосфера, неподдельная любовь всех создателей к своему детищу… Пожалуй, «Ванда и Вижен» — лучший способ открыть новый этап КВМ, признаться в любви классическому ТВ и своей легкостью поднять настроение зрителям в столь непростое время.

Битва Мстителей с титаном Таносом больно ударила по супергеройской команде — некоторым не удалось вернуться из мира мертвых, другие же оказались морально разбиты потерей друзей. Лучше всего это описывает ситуацию Вижена (Пол Беттани) — андроида, погибшего еще до щелчка Таноса, и Ванды (Элизабет Олсен), потерявшей возлюбленного и вместе с ним надежду на спокойную семейную жизнь. Погодите-ка, тогда каким образом вполне живой Вижен и его дорогая Ванда оказались в уютном пасторальном городке 50-х? Они живут душа в душу, занимаясь всем тем, что делают обыватели таких местечек. Готовят званый ужин, пытаются ужиться с безмерно любопытной соседкой Агнес (Кэтрин Хан), борются со скукой на душной работе. Вот только примерные супруги не помнят, как они здесь оказались. А Ванду мучают тревожные голоса из приемника и сбои в окружающей реальности. Как бы ни была идеальна эта прекрасная жизнь с картинки, Ванде и Вижену приходится искать выход из этого «шоу Трумана», и ключом ко всем ответам может обладать их новая знакомая Моника (Тейона Паррис). Вот только действительно ли они оба хотят выпутаться из иллюзии бесконечной счастливой жизни, в которой времена меняются незаметно, дорогие люди не стареют и не умирают, нет никаких врагов из космоса или «Гидры», а способности нужны в основном для того, чтобы быстро приготовить омаров?..

Страна: США
Студия: Disney+
Продолжительность: ~00:30:00 серия
Перевод: Профессиональный (многоголосый закадровый) LostFilm

Файл
Качество: WEB-DL 1080p | WandaVision.S01.1080p.DSNP.WEBRip.DDP5.1.x264-TOMMY
Формат: Matroska
Видео: 1920x1080 at 23.976 fps, MPEG4-AVC, ~6444 kbps avg
Аудио#1:  Russian: 48 kHz, AC3, 2/0 (L,R) ch, ~384 kbps avg |Многоголосый закадровый, LostFilm|  
Аудио#2:  English: 48 kHz, E-AC3, 3/2 (L,C,R,l,r) + LFE ch, ~768 kbps avg
Субтитры: Russian (Forced, Full |Где тексты, Лебовски?, FOCS|), English (Full, SDH)

***Примечание: Без рекламы


[+] Знаете ли вы, что…
«Ванда/Вижн» вдохновлены классическими ситкомами XX века, поэтому первую серию снимали перед живой аудиторией. Все, кто присутствовал на площадке, подписывали документы о неразглашении.
Для максимальной аутентичности съёмочная группа носила одежду в стиле 1950-х, а операторы использовали старые линзы, чтобы визуальный ряд сериала напоминал старое телевидение.
Сериал частично снимали на ранчо Warner Bros., расположенном в пригороде Лос-Анджелеса.



[+] MediaInfo
General
Unique ID                      : 317029241359515540359573310156452103602 (0xEE819C652059B88DC888E9CA8F2F85B2)
Complete name                  : WandaVision.S01E01.mkv
Format                         : Matroska
Format version                 : Version 4
File size                      : 1.41 GiB
Duration                       : 26 min 33 s
Overall bit rate mode          : Variable
Overall bit rate               : 7 598 kb/s
Encoded date                   : UTC 2021-01-17 17:14:32
Writing application            : mkvmerge v51.0.0 ('I Wish') 64-bit
Writing library                : libebml v1.4.0 + libmatroska v1.6.2

Video
ID                             : 1
Format                         : AVC
Format/Info                    : Advanced Video Codec
Format profile                 : High@L4
Format settings                : CABAC / 4 Ref Frames
Format settings, CABAC         : Yes
Format settings, Reference fra : 4 frames
Codec ID                       : V_MPEG4/ISO/AVC
Duration                       : 26 min 33 s
Bit rate mode                  : Variable
Bit rate                       : 6 444 kb/s
Maximum bit rate               : 12.7 Mb/s
Width                          : 1 920 pixels
Height                         : 1 080 pixels
Display aspect ratio           : 16:9
Frame rate mode                : Constant
Frame rate                     : 23.976 (24000/1001) FPS
Color space                    : YUV
Chroma subsampling             : 4:2:0
Bit depth                      : 8 bits
Scan type                      : Progressive
Bits/(Pixel*Frame)             : 0.130
Stream size                    : 1.19 GiB (85%)
Language                       : English
Default                        : Yes
Forced                         : No
Color range                    : Limited
Color primaries                : BT.709
Transfer characteristics       : BT.709
Matrix coefficients            : BT.709

Audio #1
ID                             : 2
Format                         : AC-3
Format/Info                    : Audio Coding 3
Commercial name                : Dolby Digital
Codec ID                       : A_AC3
Duration                       : 26 min 32 s
Bit rate mode                  : Constant
Bit rate                       : 384 kb/s
Channel(s)                     : 2 channels
Channel layout                 : L R
Sampling rate                  : 48.0 kHz
Frame rate                     : 31.250 FPS (1536 SPF)
Compression mode               : Lossy
Stream size                    : 72.9 MiB (5%)
Language                       : Russian
Service kind                   : Complete Main
Default                        : Yes
Forced                         : No

Audio #2
ID                             : 3
Format                         : E-AC-3 JOC
Format/Info                    : Enhanced AC-3 with Joint Object Coding
Commercial name                : Dolby Digital Plus with Dolby Atmos
Codec ID                       : A_EAC3
Duration                       : 26 min 33 s
Bit rate mode                  : Constant
Bit rate                       : 768 kb/s
Channel(s)                     : 6 channels
Channel layout                 : L R C LFE Ls Rs
Sampling rate                  : 48.0 kHz
Frame rate                     : 31.250 FPS (1536 SPF)
Compression mode               : Lossy
Stream size                    : 146 MiB (10%)
Title                          : English
Language                       : English
Service kind                   : Complete Main
Default                        : No
Forced                         : No
Complexity index               : 16
Number of dynamic objects      : 15
Bed channel count              : 1 channel
Bed channel configuration      : LFE

Text #1
ID                             : 4
Format                         : UTF-8
Codec ID                       : S_TEXT/UTF8
Codec ID/Info                  : UTF-8 Plain Text
Duration                       : 23 min 9 s
Bit rate                       : 9 b/s
Count of elements              : 34
Stream size                    : 1.58 KiB (0%)
Title                          : Forced
Language                       : Russian
Default                        : Yes
Forced                         : No

Text #2
ID                             : 5
Format                         : UTF-8
Codec ID                       : S_TEXT/UTF8
Codec ID/Info                  : UTF-8 Plain Text
Duration                       : 21 min 3 s
Bit rate                       : 143 b/s
Count of elements              : 424
Stream size                    : 22.2 KiB (0%)
Title                          : Где тексты, Лебовски?
Language                       : Russian
Default                        : No
Forced                         : No

Text #3
ID                             : 6
Format                         : UTF-8
Codec ID                       : S_TEXT/UTF8
Codec ID/Info                  : UTF-8 Plain Text
Duration                       : 25 min 44 s
Bit rate                       : 116 b/s
Count of elements              : 402
Stream size                    : 22.0 KiB (0%)
Title                          : FOCS
Language                       : Russian
Default                        : No
Forced                         : No

Text #4
ID                             : 7
Format                         : UTF-8
Codec ID                       : S_TEXT/UTF8
Codec ID/Info                  : UTF-8 Plain Text
Duration                       : 21 min 0 s
Bit rate                       : 92 b/s
Count of elements              : 448
Stream size                    : 14.2 KiB (0%)
Title                          : English [SDH]
Language                       : English
Default                        : No
Forced                         : No

Text #5
ID                             : 8
Format                         : UTF-8
Codec ID                       : S_TEXT/UTF8
Codec ID/Info                  : UTF-8 Plain Text
Duration                       : 20 min 57 s
Bit rate                       : 87 b/s
Count of elements              : 413
Stream size                    : 13.4 KiB (0%)
Title                          : English
Language                       : English
Default                        : No
Forced                         : No



Скриншоты:
[+] Всего файлов в раздаче - 2:
WandaVision.S01E01.mkv1.41 GB
WandaVision.S01E02.mkv1.87 GB

Показать еще раздачи по запросу ванда:
2021-02-21 U Ванда/Вижн / WandaVision [01x01-07 из 09] (2021) WEB-DL 1080p | AlexFilm 13.97 GB ↑ 38 ↓ 133
2021-02-13 U Ванда/Вижн / WandaVision [01x01-06 из 09] (2021) WEBRip 1080p от Kerob | L 9.74 GB ↑ 33 ↓ 309
2021-02-09 U Ванда/Вижн / WandaVision [01x01-05 из 09] (2021) WEB-DL 1080p | LostFilm 8.88 GB ↑ 31 ↓ 28
2021-02-07 U Ванда/Вижн / WandaVision [01x01-05 из 09] (2021) WEB-DL 1080p | AlexFilm 9.60 GB ↑ 54 ↓ 153
2021-02-01 U Ванда/Вижн / WandaVision [01x01-04 из 09] (2021) WEB-DL 1080p | LostFilm 6.77 GB ↑ 44 ↓ 27
2021-01-31 U Ванда/Вижн / WandaVision [01x01-04 из 09] (2021) WEB-DLRip | AlexFilm 1.80 GB ↑ 33 ↓ 39
2021-01-30 U Ванда/Вижн / WandaVision [01x01-04 из 09] (2021) WEB-DL 1080p | AlexFilm 7.32 GB ↑ 77 ↓ 346

Отзывы
Зарегистрируйтесь чтобы добавить комментарий.
Загрузите программу
  uTorrent.exe
Обратная связь
Copyleft ©