↑↓torrent.by
Поиск
Логин: Регистрация
Пароль: Восстановить пароль

Цыпочка / The Hot Chick (2002) WEB-DL 1080p | D, P2, A

Скачать cypochka-the-hot-chick-2002-web-dl-1080p-d-p2-a.torrent
U Магнитная ссылка Размер: 4.73 GB Раздают: 24 Качают: 10 Добавлен: 2021-01-22 04:36:06
Цыпочка / The Hot Chick (2002) WEB-DL 1080p | D, P2, A

Название: Цыпочка
Оригинальное название: The Hot Chick
Год выхода: 2002
Страна: США
Студия: Touchstone Pictures, Happy Madison Productions
Продолжительность: 01:44:23
Жанр: фэнтези, комедия

Режиссер: Том Брэди
В ролях: Роб Шнайдер, Анна Фэрис, Рэйчел МакАдамс, Адам Сэндлер, Мэттью Лоуренс, Эрик Кристиан Олсен, Роберт Дави, Мелора Хардин, Александра Холден, Марица Мюррэй, Фэй Хаузер, ...

Перевод:
- Профессиональный (дублированный) Невафильм
- Профессиональный (двуголосый, закадровый) ?
- Авторский (одноголосый, закадровый) Визгунов Сергей
- Субтитры

О фильме: Однажды проснувшись, популярная, но довольно неприятная в общении примадонна средней школы, понимает, что она стала… 30-летним мужчиной, мягко выражаясь, совсем не фотомодельного вида.
Во время того, как она пробует выяснить, почему это случилось и как, черт возьми, она может вернуть свой прежний облик, девушка начинает понимать насколько поверхностной и недалекой она была раньше…

Кодек: MPEG4/ISO/AVC
Качество: WEB-DL 1080p
Видео: 1916x1032, 4947 kbps, 23,976 fps
Аудио #1: AC-3, 6 ch, 484 kbps (Rus) - Dub Невафильм
Аудио #2: AC-3, 6 ch, 384 kbps (Rus) - DVO
Аудио #3: AC-3, 2 ch, 192 kbps (Rus) - AVO Визгунов Сергей
Аудио #4: AC-3, 6 ch, 384 kbps (Eng)
Субтитры: Русские, Английские


[+] MediaInfo
Общее
Уникальный идентификатор : 240355469429162487164680070892243277462 (0xB4D2C79304F524A7889187D73AAE5696)
Полное имя : Цыпочка (The Hot Chick) 2002 WEB-DL 1080p.mkv
Формат : Matroska
Версия формата : Version 2
Размер файла : 4,73 Гбайт
Продолжительность : 1 ч. 44 м.
Общий поток : 6484 Кбит/сек
Дата кодирования : UTC 2017-08-23 21:37:17
Программа кодирования : mkvmerge v4.0.0 ('The Stars were mine') сборка от Jun 6 2010 16:18:42
Библиотека кодирования : libebml v1.0.0 + libmatroska v1.0.0

Видео
Идентификатор : 1
Формат : AVC
Формат/Информация : Advanced Video Codec
Профиль формата : High@L4
Параметр CABAC формата : Да
Параметр ReFrames формата : 4 кадра
Идентификатор кодека : V_MPEG4/ISO/AVC
Продолжительность : 1 ч. 44 м.
Битрейт : 4947 Кбит/сек
Ширина : 1916 пикселей
Высота : 1032 пикселя
Соотношение сторон : 1,85:1
Режим частоты кадров : Постоянный
Частота кадров : 23,976 кадра/сек
Цветовое пространство : YUV
Субдискретизация насыщенности : 4:2:0
Битовая глубина : 8 бит
Тип развёртки : Прогрессивная
Бит/(Пиксели*Кадры) : 0.104
Размер потока : 3,61 Гбайт (76%)
Язык : English
Default : Нет
Forced : Нет
Цветовой диапазон : Limited
Основные цвета : BT.709
Характеристики трансфера : BT.709
Коэффициенты матрицы : BT.709

Аудио #1
Идентификатор : 2
Формат : AC-3
Формат/Информация : Audio Coding 3
Расширение режима : CM (complete main)
Параметр Endianness формата : Big
Идентификатор кодека : A_AC3
Продолжительность : 1 ч. 44 м.
Вид битрейта : Постоянный
Битрейт : 448 Кбит/сек
Каналы : 6 каналов
Расположение каналов : Front: L C R, Side: L R, LFE
Частота : 48,0 КГц
Частота кадров : 31,250 кадров/сек (1536 spf)
Метод сжатия : С потерями
Размер потока : 335 Мбайт (7%)
Заголовок : Dub Невафильм
Язык : Russian
Default : Нет
Forced : Нет

Аудио #2
Идентификатор : 3
Формат : AC-3
Формат/Информация : Audio Coding 3
Расширение режима : CM (complete main)
Параметр Endianness формата : Big
Идентификатор кодека : A_AC3
Продолжительность : 1 ч. 44 м.
Вид битрейта : Постоянный
Битрейт : 384 Кбит/сек
Каналы : 6 каналов
Расположение каналов : Front: L C R, Side: L R, LFE
Частота : 48,0 КГц
Частота кадров : 31,250 кадров/сек (1536 spf)
Метод сжатия : С потерями
Размер потока : 287 Мбайт (6%)
Заголовок : DVO
Язык : Russian
Default : Нет
Forced : Нет

Аудио #3
Идентификатор : 4
Формат : AC-3
Формат/Информация : Audio Coding 3
Расширение режима : CM (complete main)
Параметр Endianness формата : Big
Идентификатор кодека : A_AC3
Продолжительность : 1 ч. 44 м.
Вид битрейта : Постоянный
Битрейт : 192 Кбит/сек
Каналы : 2 канала
Расположение каналов : Front: L R
Частота : 48,0 КГц
Частота кадров : 31,250 кадров/сек (1536 spf)
Метод сжатия : С потерями
Размер потока : 143 Мбайт (3%)
Заголовок : AVO Визгунов Сергей
Язык : Russian
Default : Нет
Forced : Нет

Аудио #4
Идентификатор : 5
Формат : AC-3
Формат/Информация : Audio Coding 3
Расширение режима : CM (complete main)
Параметр Endianness формата : Big
Идентификатор кодека : A_AC3
Продолжительность : 1 ч. 44 м.
Вид битрейта : Постоянный
Битрейт : 384 Кбит/сек
Каналы : 6 каналов
Расположение каналов : Front: L C R, Side: L R, LFE
Частота : 48,0 КГц
Частота кадров : 31,250 кадров/сек (1536 spf)
Метод сжатия : С потерями
Размер потока : 287 Мбайт (6%)
Язык : English
Default : Нет
Forced : Нет

Текст #1
Идентификатор : 6
Формат : UTF-8
Идентификатор кодека : S_TEXT/UTF8
Идентификатор кодека/Информация : UTF-8 Plain Text
Язык : Russian
Default : Нет
Forced : Нет

Текст #2
Идентификатор : 7
Формат : UTF-8
Идентификатор кодека : S_TEXT/UTF8
Идентификатор кодека/Информация : UTF-8 Plain Text
Язык : English
Default : Нет
Forced : Нет

Текст #3
Идентификатор : 8
Формат : UTF-8
Идентификатор кодека : S_TEXT/UTF8
Идентификатор кодека/Информация : UTF-8 Plain Text
Заголовок : SDH
Язык : English
Default : Нет
Forced : Нет



Скриншоты:
[+] Всего файлов в раздаче - 1:
Цыпочка (The Hot Chick) 2002 WEB-DL 1080p.mkv4.73 GB

Похожие раздачи по запросу - цыпочка:
2013-11-23 U Цыпочка / The Hot Chick (2002) DVDRip 4К1.46 GB ↑ 222 ↓ 0

Отзывы
Зарегистрируйтесь чтобы добавить комментарий.
Загрузите программу
  uTorrent.exe
Обратная связь
Copyleft ©