↑↓torrent.by
Поиск
Логин: Регистрация
Пароль: Восстановить пароль

Бегущий по лезвию: Блэкаут 2022 / Blade Runner: Black Out 2022 (2017) BDRip-HEVC 1080p | AniPlague

Скачать beguschiy-po-lezviyu-blekaut-2022-blade-runner-black-out-2017-bdrip-hevc-1080p-aniplague.torrent
U Магнитная ссылка Размер: 1.17 GB Раздают: 75 Качают: 9 Добавлен: 2021-01-25 18:32:08
Бегущий по лезвию: Блэкаут 2022 / Blade Runner: Black Out 2022 (2017) BDRip-HEVC 1080p | AniPlague

Название: Бегущий по лезвию: Блэкаут 2022
Оригинальное название: Blade Runner: Black Out 2022
Год выхода: 2017
Жанр: Мультфильм, фантастика, боевик
Режиссер: Синъитиро Ватанабэ

О фильме:
В 2022 году группа репликантов готовит блэкаут в Лос-Анджелесе.

Страна: Япония
Продолжительность: 00:15:45
Перевод: Любительский многоголосый (AniPlague)

Файл
Качество: BDRip-HEVC
Видео: 1920x1080, 23.976 fps, ~10 Mb/s, 10 bit
Звук: AC3, 192 kb/s, 48 kHz, 2.0  | Русский R5
Звук: AC3, 192 kb/s, 48 kHz, 2.0 | Английский


[+] MediaInfo
General
Unique ID                   : 234897828559494181097408229131306150817 (0xB0B7AD1AC012799F938FC510807C2BA1)
Complete name               : D:Blade Runner - Black Out 2022 (1080p HEVC).mkv
Format                      : Matroska
Format version              : Version 4
File size                   : 1.17 GiB
Duration                    : 15 min 45 s
Overall bit rate            : 10.7 Mb/s
Movie name                  : Blade Runner: Black Out 2022
Encoded date                : UTC 2021-01-24 19:58:13
Writing application         : mkvmerge v8.3.0 ('Over the Horizon') 64bit
Writing library             : libebml v1.3.1 + libmatroska v1.4.2

Video
ID                          : 1
Format                      : HEVC
Format/Info                 : High Efficiency Video Coding
Format profile              : Main 10@L4@High
Codec ID                    : V_MPEGH/ISO/HEVC
Duration                    : 15 min 45 s
Bit rate                    : 10.3 Mb/s
Width                       : 1 920 pixels
Height                      : 1 080 pixels
Display aspect ratio        : 16:9
Frame rate mode             : Constant
Frame rate                  : 23.976 (24000/1001) FPS
Color space                 : YUV
Chroma subsampling          : 4:2:0
Bit depth                   : 10 bits
Bits/(Pixel*Frame)          : 0.207
Stream size                 : 1.13 GiB (96%)
Writing library             : x265 3.2+7-gf013b29a7+28:[Windows][GCC 9.3.0][64 bit] Asuna 10bit+8bit+12bit
Encoding settings           : rc=crf / crf=15.0000 / qcomp=0.65 / qpstep=4 / stats-write=0 / stats-read=0 / vbv-maxrate=30000 / vbv-bufsize=40000 / vbv-init=0.9 / crf-max=0.0 / crf-min=0.0 / no-lossless / no-cu-lossless / aq-mode=1 / aq-strength=0.80 / cbqpoffs=-2 / crqpoffs=-2 / ipratio=1.40 / pbratio=1.20 / psy-rd=1.70 / psy-rdoq=0.80 / deblock=-1:-1 / ref=5 / limit-refs=1 / limit-modes / bframes=8 / b-adapt=2 / bframe-bias=0 / b-pyramid / b-intra / weightp / weightb / min-keyint=1 / max-keyint=360 / rc-lookahead=80 / gop-lookahead=0 / scenecut=40 / radl=0 / max-cu-size=32 / min-cu-size=8 / me=3 / subme=4 / merange=57 / rdoq-level=2 / rd=5 / rdpenalty=0 / dynamic-rd=0.00 / no-rd-refine / ----- / cutree / no-sao / rect / no-amp / no-open-gop / wpp / no-pmode / no-pme / no-psnr / no-ssim / nr-intra=0 / nr-inter=0 / no-constrained-intra / no-strong-intra-smoothing / max-tu-size=32 / tu-inter-depth=3 / tu-intra-depth=3 / limit-tu=4 / qg-size=8 / qpmax=69 / qpmin=0 / ----- / cpuid=1111039 / frame-threads=4 / numa-pools=+ / log-level=2 / input-csp=1 / input-res=1920x1080 / interlace=0 / level-idc=0 / high-tier=1 / uhd-bd=0 / no-allow-non-conformance / no-repeat-headers / no-aud / no-hrd / info / hash=0 / no-temporal-layers / lookahead-slices=0 / no-splice / no-intra-refresh / no-ssim-rd / signhide / no-tskip / max-merge=4 / temporal-mvp / no-hme / no-analyze-src-pics / no-sao-non-deblock / selective-sao=0 / no-early-skip / rskip / no-fast-intra / no-tskip-fast / no-splitrd-skip / zone-count=0 / no-strict-cbr / no-rc-grain / no-const-vbv / sar=0 / overscan=0 / videoformat=5 / range=0 / colorprim=1 / transfer=1 / colormatrix=1 / chromaloc=0 / display-window=0 / cll=0,0 / min-luma=0 / max-luma=1023 / log2-max-poc-lsb=8 / vui-timing-info / vui-hrd-info / slices=1 / no-opt-qp-pps / no-opt-ref-list-length-pps / no-multi-pass-opt-rps / scenecut-bias=0.05 / no-opt-cu-delta-qp / no-aq-motion / no-hdr / no-hdr-opt / no-dhdr10-opt / no-idr-recovery-sei / analysis-reuse-level=5 / scale-factor=0 / refine-intra=0 / refine-inter=0 / refine-mv=1 / refine-ctu-distortion=0 / no-limit-sao / ctu-info=0 / no-lowpass-dct / refine-analysis-type=0 / copy-pic=1 / max-ausize-factor=1.0 / no-dynamic-refine / no-single-sei / no-hevc-aq / no-svt / no-field / qp-adaptation-range=1.00
Default                     : Yes
Forced                      : No
Color range                 : Limited
Color primaries             : BT.709
Transfer characteristics    : BT.709
Matrix coefficients         : BT.709

Audio #1
ID                          : 2
Format                      : AC-3
Format/Info                 : Audio Coding 3
Commercial name             : Dolby Digital
Codec ID                    : A_AC3
Duration                    : 15 min 44 s
Bit rate mode               : Constant
Bit rate                    : 192 kb/s
Channel(s)                  : 2 channels
Channel layout              : L R
Sampling rate               : 48.0 kHz
Frame rate                  : 31.250 FPS (1536 SPF)
Compression mode            : Lossy
Stream size                 : 21.6 MiB (2%)
Title                       : AniPlague
Language                    : Russian
Service kind                : Complete Main
Default                     : Yes
Forced                      : Yes

Audio #2
ID                          : 3
Format                      : AC-3
Format/Info                 : Audio Coding 3
Commercial name             : Dolby Digital
Codec ID                    : A_AC3
Duration                    : 15 min 45 s
Bit rate mode               : Constant
Bit rate                    : 192 kb/s
Channel(s)                  : 2 channels
Channel layout              : L R
Sampling rate               : 48.0 kHz
Frame rate                  : 31.250 FPS (1536 SPF)
Compression mode            : Lossy
Stream size                 : 21.6 MiB (2%)
Language                    : English
Service kind                : Complete Main
Default                     : No
Forced                      : No




Скриншоты:
[+] Всего файлов в раздаче - 1:
Blade Runner - Black Out 2022 (1080p HEVC).mkv1.17 GB

Похожие раздачи по запросу - бегущий:
2018-01-15 U Бегущий по лезвию / Blade Runner (1982) UHDRip-HEVC 1080p | Final Cut | D 7.58 GB ↑ 693 ↓ 49
2018-01-05 U Бегущий по лезвию 2049 / Blade Runner 2049 (2017) HDRip от Scarabey | Лицензия 1.46 GB ↑ 1440 ↓ 145
2018-01-05 U Бегущий по лезвию 2049 / Blade Runner 2049 (2017) BDRip от MegaPeer | Лицензия 1.46 GB ↑ 2913 ↓ 1722
2018-01-03 U Бегущий по лезвию / Blade Runner (1982) BDRip-HEVC 1080p | Final Cut | D 5.84 GB ↑ 1057 ↓ 32
2018-01-02 U Бегущий по лезвию 2049 / Blade Runner 2049 (2017) WEB-DL 1080p | iTunes 6.23 GB ↑ 9471 ↓ 4042

Отзывы
Зарегистрируйтесь чтобы добавить комментарий.
Загрузите программу
  uTorrent.exe
Обратная связь
Copyleft ©