↑↓torrent.by
Поиск
Логин: Регистрация
Пароль: Восстановить пароль

Яблочное зернышко: Коллекция / Appleseed: Collection (2004-2014) BDRip 1080p

Скачать yablochnoe-zernyshko-kollekciya-appleseed-collection-2004-2014-bdrip-1080p.torrent
U Магнитная ссылка Размер: 29.78 GB Раздают: 23 Качают: 12 Добавлен: 2021-01-26 04:17:24
Яблочное зернышко: Коллекция / Appleseed: Collection (2004-2014) BDRip 1080p




[+] Яблочное зернышко / Appleseed / Appurushîdo (2004)

[img]https://d.radikal.ru/d26/2101/a1/54983d7076d1.png" style="float:right;[/img]

Яблочное зернышко
Appleseed / Appurushîdo
«Humanity's last chance for survival»

Год выпуска: 2004
Страна: Япония
Жанр:  [url=/tag/10/фантастика]фантастика, боевик, мультфильм, аниме[/url]
Продолжительность: 01:45:49
Перевод:  Дубляж, двухголосый закадровый, авторский

Режиссер:  Синдзи Арамаки / Shinji Aramaki
В ролях: Аи Кобаяши, Дзюроута Косуги, Юки Мацуока, Асуми Мива, Акимото Тсубаса, Jack Aubree, Уильям Бассетт, Дебора Сейл, Майкл Форест, Юдзуру Фуджимото

Описание: 2131 год. Неядерная война, почти уничтожившая человечество, закончена. Победивших нет. Солдат спецназа Дюнан Нат выжила и при неясных обстоятельствах попадает в город Олимп, ставший центром Земли. Ее бывший возлюбленный Бриареос, приведший Дюнан в Олимп, потерял тело в сражениях за Северную Африку и стал киборгом.
Половина населения Олимпа — клоны специально отобранных человеческих особей, кибернетически модифицированных и улучшенных, — биороиды. Их природа такова, что исключает социальные конфликты и нестабильность. Город и его население контролируется правящей верхушкой и Гейа — кибернетическим мозгом. Кто такие биороиды, неужели Олимп — та самая утопия, о которой мечтало раздираемое конфликтами человечество? Или же именно в Гейа нужно искать причины коллапса человечества?



Кодек: H264
Качество: BDRip 1080p
Видео: MPEG-4 AVC, 1918x1080, 12000 Кбит/с, 24 fps
Аудио 1: Русский, AC3, 6 ch, 448 Кбит/с  Дубляж, R5
Аудио 2: Русский, AC3, 6 ch  640, Кбит/с  Двухголосый закадровый, П. Гланц и И. Королёва
Аудио 3: Русский, AC3, 6 ch, 640 Кбит/с  Одноголосый закадровый, А.Гаврилов
Аудио 4: Английский, AC3, 6 ch, 640 Кбит/с  Дубляж
Аудио 5: Японский, AC3, 2 ch, 6 ch, 640 Кбит/с  Оригинал
Субтитры: Русские, английские
Главы: Есть

   
 

Инфо файл
x264 [info]: frame I:939   Avg QP:15.58  size:228104
x264 [info]: frame P:42571 Avg QP:17.58  size:108403
x264 [info]: frame B:108891 Avg QP:18.69  size: 43130

Общее
Уникальный идентификатор                 : 214281435988579033407028965451656118570 (0xA1351A790E5F31B5933558F4D654C12A)
Полное имя                               : J:Яблочное зернышко ТрилогияЯблочное зернышко 2004г. BDRip 1080p.mkv
Формат                                   : Matroska
Версия формата                           : Version 2
Размер файла                             : 11,1 Гбайт
Продолжительность                        : 1 ч. 45 м.
Общий поток                              : 15,0 Мбит/сек
Дата кодирования                         : UTC 2021-01-23 12:25:01
Программа кодирования                    : mkvmerge v6.5.0 ('Isn't she lovely') built on Oct 20 2013 12:50:05
Библиотека кодирования                   : libebml v1.3.0 + libmatroska v1.4.1

Видео
Идентификатор                            : 1
Формат                                   : AVC
Формат/Информация                        : Advanced Video Codec
Профиль формата                          : High@L4.1
Настройки формата                        : CABAC / 4 Ref Frames
Параметр CABAC формата                   : Да
Параметр RefFrames формата               : 4 кадра
Идентификатор кодека                     : V_MPEG4/ISO/AVC
Продолжительность                        : 1 ч. 45 м.
Битрейт                                  : 12,0 Мбит/сек
Ширина                                   : 1918 пикселей
Высота                                   : 1080 пикселей
Соотношение сторон                       : 16:9
Режим частоты кадров                     : Постоянный
Частота кадров                           : 24,000 кадра/сек
Цветовое пространство                    : YUV
Субдискретизация насыщенности            : 4:2:0
Битовая глубина                          : 8 бит
Тип развёртки                            : Прогрессивная
Бит/(Пиксели*Кадры)                      : 0.241
Размер потока                            : 8,64 Гбайт (78%)
Библиотека кодирования                   : x264 core 152 r2851kMod ba24899
Настройки программы                      : cabac=1 / ref=4 / deblock=1:-3:-3 / analyse=0x3:0x113 / me=umh / subme=11 / psy=1 / fade_compensate=0.00 / psy_rd=1.00:0.00 / mixed_ref=1 / me_range=48 / chroma_me=1 / trellis=2 / 8x8dct=1 / cqm=0 / deadzone=21,11 / fast_pskip=0 / chroma_qp_offset=-2 / threads=12 / lookahead_threads=3 / sliced_threads=0 / nr=0 / decimate=0 / interlaced=0 / bluray_compat=0 / constrained_intra=0 / bframes=14 / b_pyramid=2 / b_adapt=2 / b_bias=0 / direct=3 / weightb=1 / open_gop=0 / weightp=2 / keyint=240 / keyint_min=24 / scenecut=40 / intra_refresh=0 / rc_lookahead=40 / rc=2pass / mbtree=0 / bitrate=12000 / ratetol=1.0 / qcomp=0.60 / qpmin=0 / qpmax=39 / qpstep=4 / cplxblur=20.0 / qblur=0.5 / vbv_maxrate=50000 / vbv_bufsize=62500 / nal_hrd=none / filler=0 / ip_ratio=1.10 / pb_ratio=1.30 / aq=1:0.90
Язык                                     : English
Default                                  : Да
Forced                                   : Нет
Цветовой диапазон                        : Limited
Основные цвета                           : BT.709
Характеристики трансфера                 : BT.709
Коэффициенты матрицы                     : BT.709

Аудио #1
Идентификатор                            : 2
Формат                                   : AC-3
Формат/Информация                        : Audio Coding 3
Параметр Endianness формата              : Big
Идентификатор кодека                     : A_AC3
Продолжительность                        : 1 ч. 45 м.
Вид битрейта                             : Постоянный
Битрейт                                  : 448 Кбит/сек
Каналы                                   : 6 каналов
Расположение каналов                     : Front: L C R, Side: L R, LFE
Частота                                  : 48,0 КГц
Частота кадров                           : 31,250 кадров/сек (1536 SPF)
Битовая глубина                          : 16 бит
Метод сжатия                             : С потерями
Размер потока                            : 339 Мбайт (3%)
Заголовок                                : Дубляж, R5
Язык                                     : Russian
Default                                  : Да
Forced                                   : Нет

Аудио #2
Идентификатор                            : 3
Формат                                   : AC-3
Формат/Информация                        : Audio Coding 3
Параметр Endianness формата              : Big
Идентификатор кодека                     : A_AC3
Продолжительность                        : 1 ч. 45 м.
Вид битрейта                             : Постоянный
Битрейт                                  : 640 Кбит/сек
Каналы                                   : 6 каналов
Расположение каналов                     : Front: L C R, Side: L R, LFE
Частота                                  : 48,0 КГц
Частота кадров                           : 31,250 кадров/сек (1536 SPF)
Битовая глубина                          : 16 бит
Метод сжатия                             : С потерями
Размер потока                            : 484 Мбайт (4%)
Заголовок                                : Двухголосый закадровый, П. Гланц и И. Королёва
Язык                                     : Russian
Default                                  : Нет
Forced                                   : Нет

Аудио #3
Идентификатор                            : 4
Формат                                   : AC-3
Формат/Информация                        : Audio Coding 3
Параметр Endianness формата              : Big
Идентификатор кодека                     : A_AC3
Продолжительность                        : 1 ч. 45 м.
Вид битрейта                             : Постоянный
Битрейт                                  : 640 Кбит/сек
Каналы                                   : 6 каналов
Расположение каналов                     : Front: L C R, Side: L R, LFE
Частота                                  : 48,0 КГц
Частота кадров                           : 31,250 кадров/сек (1536 SPF)
Битовая глубина                          : 16 бит
Метод сжатия                             : С потерями
Размер потока                            : 484 Мбайт (4%)
Заголовок                                : Одноголосый закадровый, А.Гаврилов
Язык                                     : Russian
Default                                  : Нет
Forced                                   : Нет

Аудио #4
Идентификатор                            : 5
Формат                                   : AC-3
Формат/Информация                        : Audio Coding 3
Параметр Endianness формата              : Big
Идентификатор кодека                     : A_AC3
Продолжительность                        : 1 ч. 45 м.
Вид битрейта                             : Постоянный
Битрейт                                  : 640 Кбит/сек
Каналы                                   : 6 каналов
Расположение каналов                     : Front: L C R, Side: L R, LFE
Частота                                  : 48,0 КГц
Частота кадров                           : 31,250 кадров/сек (1536 SPF)
Битовая глубина                          : 16 бит
Метод сжатия                             : С потерями
Размер потока                            : 484 Мбайт (4%)
Заголовок                                : Дубляж
Язык                                     : English
Default                                  : Нет
Forced                                   : Нет

Аудио #5
Идентификатор                            : 6
Формат                                   : AC-3
Формат/Информация                        : Audio Coding 3
Параметр Endianness формата              : Big
Идентификатор кодека                     : A_AC3
Продолжительность                        : 1 ч. 45 м.
Вид битрейта                             : Постоянный
Битрейт                                  : 640 Кбит/сек
Каналы                                   : 6 каналов
Расположение каналов                     : Front: L C R, Side: L R, LFE
Частота                                  : 48,0 КГц
Частота кадров                           : 31,250 кадров/сек (1536 SPF)
Битовая глубина                          : 16 бит
Метод сжатия                             : С потерями
Размер потока                            : 484 Мбайт (4%)
Заголовок                                : Оригинал
Язык                                     : Japanese
Default                                  : Нет
Forced                                   : Нет

Текст #1
Идентификатор                            : 7
Формат                                   : UTF-8
Идентификатор кодека                     : S_TEXT/UTF8
Идентификатор кодека/Информация          : UTF-8 Plain Text
Заголовок                                : R5
Язык                                     : Russian
Default                                  : Нет
Forced                                   : Нет

Текст #2
Идентификатор                            : 8
Формат                                   : UTF-8
Идентификатор кодека                     : S_TEXT/UTF8
Идентификатор кодека/Информация          : UTF-8 Plain Text
Язык                                     : Russian
Default                                  : Нет
Forced                                   : Нет

Текст #3
Идентификатор                            : 9
Формат                                   : UTF-8
Идентификатор кодека                     : S_TEXT/UTF8
Идентификатор кодека/Информация          : UTF-8 Plain Text
Язык                                     : English
Default                                  : Нет
Forced                                   : Нет

Текст #4
Идентификатор                            : 10
Формат                                   : UTF-8
Идентификатор кодека                     : S_TEXT/UTF8
Идентификатор кодека/Информация          : UTF-8 Plain Text
Заголовок                                : SDH
Язык                                     : English
Default                                  : Нет
Forced                                   : Нет

Меню
00:00:00.000                             : :1. Opening
00:11:08.042                             : :2. Deunan Wakes
00:20:49.042                             : :3. Nightmare
00:29:53.042                             : :4. Elders and Bioroids
00:34:59.042                             : :5. Simulated Battle
00:44:12.042                             : :6. Terorists Attack
00:54:55.042                             : :7. Secret Mission
01:03:59.042                             : :8. Unexpected Betrayal
01:13:26.042                             : :9. For This Love
01:27:25.042                             : :10. Mobile Fortress
01:39:10.042                             : :11. A new start
01:41:18.042                             : :12. End credits




[+]  Яблочное зернышко 2 / Appleseed: Ex Machina (2007)  Japanese Version

[img]https://d.radikal.ru/d37/2101/14/83a76688af79.png" style="float:right;[/img]

Яблочное зернышко 2
Appleseed: Ex Machina
«Where there's despair, hope comes in threes: a Human, a Cyborg and a Bioroid»

Год выпуска: 2007
Страна: Япония
Жанр:  [url=/tag/10/фантастика]фантастика, боевик, мультфильм, аниме[/url]
Продолжительность: 01:44:13
Перевод:  Дубляж, Многоголосый закадровый, двухголосый закадровый, авторский

Режиссер: Синдзи Арамаки / Shinji Aramaki
В ролях: Кобаяси Ай, Ямадэра Коити, Киси Юдзи, Савасиро Миюки, Игараси Рэй, Такасима Гара, Цудзи Синпати, Касэ Ясуюки, Конг Кувата, Хаси Такая, Фуками Рика, Кода Наоко, Курода Такая

Описание: В 2133 году, после глобальной войны в которой погибло более половины населения земли, город Олимп стал маяком надежды в мире разрушений и страданий. Олимп - утопия, которой управляет суперкомпьютер Гайа, а важные политические посты занимают искусственно спроектированные люди-биороиды - которым неведомы эмоции злости или ненависти.
Дюнан Нант - молодая, но профессиональная военная, и Бриарюс - элитный солдат с телом киборга - напарники и возлюбленные, вместе охраняют покой идеального общества будущего.
Старых друзей подвергают нешуточному испытанию, когда напарником Дюнан назначают Терея - экспериментального биороида-воина, созданного на основе ДНК Бриарюса и как две капли воды похожего на его настоящее тело.



Кодек: H264
Качество: BDRip 1080p
Видео: MPEG-4 AVC, 1920x1080 Кбит/с , 10000 Кбит/с, 23.976 fps
Аудио 1: Русский, AC3, 6 ch, 448 Кбит/с  Двухголосый закадровый, П. Гланц и И. Королева
Аудио 2: Английский, AC3, 6 ch, 640 Кбит/с  Дубляж
Аудио 3: Японский, AC3, 6 ch, 640 Кбит/с  Оригинал
Субтитры: Русские, английские
Главы: Есть

   
 

Инфо файл
x264 [info]: frame I:980   Avg QP:11.96  size:197990
x264 [info]: frame P:52998 Avg QP:14.64  size: 80875
x264 [info]: frame B:95948 Avg QP:15.90  size: 34751

Общее
Уникальный идентификатор                 : 208451644707323901093142220880737231053 (0x9CD2539237D24616B66616BD677060CD)
Полное имя                               : J:Яблочное зернышко Трилогия2 Яблочное зернышко 2 2007г. BDRip 1080p.mkv
Формат                                   : Matroska
Версия формата                           : Version 2
Размер файла                             : 8,54 Гбайт
Продолжительность                        : 1 ч. 44 м.
Общий поток                              : 11,7 Мбит/сек
Дата кодирования                         : UTC 2021-01-25 00:09:53
Программа кодирования                    : mkvmerge v5.8.0 ('No Sleep / Pillow') built on Sep  2 2012 15:37:04
Библиотека кодирования                   : libebml v1.2.3 + libmatroska v1.3.0

Видео
Идентификатор                            : 1
Формат                                   : AVC
Формат/Информация                        : Advanced Video Codec
Профиль формата                          : High@L4.1
Настройки формата                        : CABAC / 4 Ref Frames
Параметр CABAC формата                   : Да
Параметр RefFrames формата               : 4 кадра
Идентификатор кодека                     : V_MPEG4/ISO/AVC
Продолжительность                        : 1 ч. 44 м.
Битрейт                                  : 10000 Кбит/сек
Ширина                                   : 1920 пикселей
Высота                                   : 1080 пикселей
Соотношение сторон                       : 16:9
Режим частоты кадров                     : Постоянный
Частота кадров                           : 23,976 (24000/1001) кадра/сек
Цветовое пространство                    : YUV
Субдискретизация насыщенности            : 4:2:0
Битовая глубина                          : 8 бит
Тип развёртки                            : Прогрессивная
Бит/(Пиксели*Кадры)                      : 0.201
Размер потока                            : 7,11 Гбайт (83%)
Библиотека кодирования                   : x264 core 152 r2851kMod ba24899
Настройки программы                      : cabac=1 / ref=4 / deblock=1:-3:-3 / analyse=0x3:0x113 / me=umh / subme=11 / psy=1 / fade_compensate=0.00 / psy_rd=1.00:0.00 / mixed_ref=1 / me_range=48 / chroma_me=1 / trellis=2 / 8x8dct=1 / cqm=0 / deadzone=21,11 / fast_pskip=0 / chroma_qp_offset=-2 / threads=12 / lookahead_threads=2 / sliced_threads=0 / nr=0 / decimate=0 / interlaced=0 / bluray_compat=0 / constrained_intra=0 / bframes=9 / b_pyramid=2 / b_adapt=2 / b_bias=0 / direct=3 / weightb=1 / open_gop=0 / weightp=2 / keyint=240 / keyint_min=23 / scenecut=40 / intra_refresh=0 / rc_lookahead=40 / rc=2pass / mbtree=0 / bitrate=10000 / ratetol=1.0 / qcomp=0.60 / qpmin=0 / qpmax=39 / qpstep=4 / cplxblur=20.0 / qblur=0.5 / vbv_maxrate=50000 / vbv_bufsize=62500 / nal_hrd=none / filler=0 / ip_ratio=1.25 / pb_ratio=1.30 / aq=1:0.90
Язык                                     : English
Default                                  : Да
Forced                                   : Нет
Цветовой диапазон                        : Limited
Основные цвета                           : BT.709
Характеристики трансфера                 : BT.709
Коэффициенты матрицы                     : BT.709

Аудио #1
Идентификатор                            : 2
Формат                                   : AC-3
Формат/Информация                        : Audio Coding 3
Параметр Endianness формата              : Big
Идентификатор кодека                     : A_AC3
Продолжительность                        : 1 ч. 44 м.
Вид битрейта                             : Постоянный
Битрейт                                  : 448 Кбит/сек
Каналы                                   : 6 каналов
Расположение каналов                     : Front: L C R, Side: L R, LFE
Частота                                  : 48,0 КГц
Частота кадров                           : 31,250 кадров/сек (1536 SPF)
Битовая глубина                          : 16 бит
Метод сжатия                             : С потерями
Размер потока                            : 334 Мбайт (4%)
Заголовок                                : Двухголосый закадровый, П. Гланц и И. Королева
Язык                                     : Russian
Default                                  : Да
Forced                                   : Нет

Аудио #2
Идентификатор                            : 3
Формат                                   : AC-3
Формат/Информация                        : Audio Coding 3
Параметр Endianness формата              : Big
Идентификатор кодека                     : A_AC3
Продолжительность                        : 1 ч. 44 м.
Вид битрейта                             : Постоянный
Битрейт                                  : 640 Кбит/сек
Каналы                                   : 6 каналов
Расположение каналов                     : Front: L C R, Side: L R, LFE
Частота                                  : 48,0 КГц
Частота кадров                           : 31,250 кадров/сек (1536 SPF)
Битовая глубина                          : 16 бит
Метод сжатия                             : С потерями
Размер потока                            : 477 Мбайт (5%)
Заголовок                                : Дубляж
Язык                                     : English
Default                                  : Нет
Forced                                   : Нет

Аудио #3
Идентификатор                            : 4
Формат                                   : AC-3
Формат/Информация                        : Audio Coding 3
Параметр Endianness формата              : Big
Идентификатор кодека                     : A_AC3
Продолжительность                        : 1 ч. 44 м.
Вид битрейта                             : Постоянный
Битрейт                                  : 640 Кбит/сек
Каналы                                   : 6 каналов
Расположение каналов                     : Front: L C R, Side: L R, LFE
Частота                                  : 48,0 КГц
Частота кадров                           : 31,250 кадров/сек (1536 SPF)
Битовая глубина                          : 16 бит
Метод сжатия                             : С потерями
Размер потока                            : 477 Мбайт (5%)
Заголовок                                : Оригинал
Язык                                     : Japanese
Default                                  : Нет
Forced                                   : Нет

Текст #1
Идентификатор                            : 5
Формат                                   : UTF-8
Идентификатор кодека                     : S_TEXT/UTF8
Идентификатор кодека/Информация          : UTF-8 Plain Text
Язык                                     : Russian
Default                                  : Нет
Forced                                   : Нет

Текст #2
Идентификатор                            : 6
Формат                                   : UTF-8
Идентификатор кодека                     : S_TEXT/UTF8
Идентификатор кодека/Информация          : UTF-8 Plain Text
Язык                                     : English
Default                                  : Нет
Forced                                   : Нет

Меню
00:00:00.000                             : en:Chapter 1
00:01:51.610                             : en:Chapter 2
00:09:02.875                             : en:Chapter 3
00:12:58.735                             : en:Chapter 4
00:16:02.794                             : en:Chapter 5
00:17:37.556                             : en:Chapter 6
00:21:27.618                             : en:Chapter 7
00:24:37.517                             : en:Chapter 8
00:29:59.963                             : en:Chapter 9
00:31:46.570                             : en:Chapter 10
00:35:31.295                             : en:Chapter 11
00:42:32.882                             : en:Chapter 12
00:44:15.318                             : en:Chapter 13
00:46:48.304                             : en:Chapter 14
00:49:09.820                             : en:Chapter 15
00:51:00.556                             : en:Chapter 16
00:55:06.969                             : en:Chapter 17
00:56:29.052                             : en:Chapter 18
01:00:24.286                             : en:Chapter 19
01:02:52.434                             : en:Chapter 20
01:08:07.083                             : en:Chapter 21
01:16:09.564                             : en:Chapter 22
01:19:24.760                             : en:Chapter 23
01:27:57.814                             : en:Chapter 24
01:35:09.369                             : en:Chapter 25
01:38:27.067                             : en:Chapter 26
01:40:07.542                             : en:Chapter 27
01:44:12.162                             : en:Chapter 28




[+]  Яблочное зернышко. Проект Альфа / Appleseed Alpha (2014)

[img]http://c.radikal.ru/c20/2101/31/705d2c64ec0c.png" style="float:right;[/img]

Яблочное зернышко. Проект Альфа
Appleseed Alpha
«To find Olympus, they must fight to survive»

Год выпуска: 2014
Страна: Япония, США
Жанр:  [url=/tag/10/фантастика]фантастика, боевик, мультфильм, аниме[/url]
Продолжительность: 01:33:16
Перевод:  Многоголосый закадровый

Режиссер: Синдзи Арамаки / Shinji Aramaki
В ролях: Юка Комацу, Дзюнъити Сувабэ, Аои Юки, Такахаси Хироки, Хироки Тоути, Каори Надзука, Кацуносукэ Хори, Тэссё Гэнда, Элизабет Банч, Вендел Кэлверт

Описание: Действие посвящено боевой биографии Дюнан и Бриарея до попадания в Олимп.



Кодек: H264
Качество: BDRip 1080p
Видео: MPEG-4 AVC, 1920x1080, 14300 Кбит/с, 23.976 fps
Аудио 1: Русский, AC3, 6 ch, 640 Кбит/с  Многоголосый закадровый,  Пифагор
Аудио 2: Английский, АС3, 6 ch, 640 Кбит/с  Дубляж
Субтитры: Русские,  английские
Главы: Есть

   
 

Инфо файл
x264 [info]: frame I:855   Avg QP:12.41  size:319409
x264 [info]: frame P:35338 Avg QP:14.65  size:133109
x264 [info]: frame B:97967 Avg QP:16.56  size: 51311

Общее
Уникальный идентификатор                 : 211435581494837310165544956451275265974 (0x9F1103036C55210B8A5B7DB01E85D7B6)
Полное имя                               : J:Яблочное зернышко Трилогия3 Яблочное зернышко. Проект Альфа 2014г. BDRip 1080p.mkv
Формат                                   : Matroska
Версия формата                           : Version 2
Размер файла                             : 10,2 Гбайт
Продолжительность                        : 1 ч. 33 м.
Общий поток                              : 15,6 Мбит/сек
Дата кодирования                         : UTC 2021-01-24 12:34:31
Программа кодирования                    : mkvmerge v6.5.0 ('Isn't she lovely') built on Oct 20 2013 12:50:05
Библиотека кодирования                   : libebml v1.3.0 + libmatroska v1.4.1

Видео
Идентификатор                            : 1
Формат                                   : AVC
Формат/Информация                        : Advanced Video Codec
Профиль формата                          : High@L4.1
Настройки формата                        : CABAC / 4 Ref Frames
Параметр CABAC формата                   : Да
Параметр RefFrames формата               : 4 кадра
Идентификатор кодека                     : V_MPEG4/ISO/AVC
Продолжительность                        : 1 ч. 33 м.
Битрейт                                  : 14,3 Мбит/сек
Ширина                                   : 1920 пикселей
Высота                                   : 1080 пикселей
Соотношение сторон                       : 16:9
Режим частоты кадров                     : Постоянный
Частота кадров                           : 23,976 (24000/1001) кадра/сек
Цветовое пространство                    : YUV
Субдискретизация насыщенности            : 4:2:0
Битовая глубина                          : 8 бит
Тип развёртки                            : Прогрессивная
Бит/(Пиксели*Кадры)                      : 0.288
Размер потока                            : 9,12 Гбайт (90%)
Библиотека кодирования                   : x264 core 152 r2851kMod ba24899
Настройки программы                      : cabac=1 / ref=4 / deblock=1:-3:-3 / analyse=0x3:0x113 / me=umh / subme=11 / psy=1 / fade_compensate=0.00 / psy_rd=1.00:0.00 / mixed_ref=1 / me_range=48 / chroma_me=1 / trellis=2 / 8x8dct=1 / cqm=0 / deadzone=21,11 / fast_pskip=0 / chroma_qp_offset=-2 / threads=12 / lookahead_threads=3 / sliced_threads=0 / nr=0 / decimate=0 / interlaced=0 / bluray_compat=0 / constrained_intra=0 / bframes=12 / b_pyramid=2 / b_adapt=2 / b_bias=0 / direct=3 / weightb=1 / open_gop=0 / weightp=2 / keyint=240 / keyint_min=23 / scenecut=40 / intra_refresh=0 / rc_lookahead=40 / rc=2pass / mbtree=0 / bitrate=14300 / ratetol=1.0 / qcomp=0.60 / qpmin=0 / qpmax=39 / qpstep=4 / cplxblur=20.0 / qblur=0.5 / vbv_maxrate=50000 / vbv_bufsize=62500 / nal_hrd=none / filler=0 / ip_ratio=1.22 / pb_ratio=1.30 / aq=1:0.70
Язык                                     : English
Default                                  : Да
Forced                                   : Нет
Цветовой диапазон                 &nb
[+] Всего файлов в раздаче - 3:
1 Яблочное зернышко 2004г. BDRip 1080p.mkv11.09 GB
3 Яблочное зернышко. Проект Альфа 2014г. BDRip 1080p.mkv10.15 GB
2 Яблочное зернышко 2 2007г. BDRip 1080p.mkv8.54 GB

Отзывы
Зарегистрируйтесь чтобы добавить комментарий.
Загрузите программу
  uTorrent.exe
Обратная связь
Copyleft ©