↑↓torrent.by
Поиск
Логин: Регистрация
Пароль: Восстановить пароль

Путь Хико / Xicos Journey / El Camino de Xico (2020) WEB-DL 1080p от селезень | Netflix

Скачать put-hiko-xicos-journey-el-camino-de-xico-2020-web-dl-1080p-ot-selezen-netflix.torrent
U Магнитная ссылка Размер: 2.75 GB Раздают: 188 Качают: 89 Добавлен: 2021-02-12 17:16:37
Путь Хико / Xicos Journey / El Camino de Xico (2020) WEB-DL 1080p от селезень | Netflix

Название: Путь Хико
Оригинальное название: Xicos Journey / El Camino de Xico
Год выхода: 2020
Жанр: Мультфильм, семейный, полнометражный
Режиссер: Эрик Кабельо
В ролях: Вероника Альва, Пабло Гама Итурраран, Луис Анхель Харамильо, Лила Даунс, Элена Понятовска, Вероника Кастро, Энрике Гусман, Алекс Лора, Марко Антонио Солис, Виктор Трухильо

О фильме: Девочка и её лучший друг отправляются спасать гору от алчной корпорации. В этом им поможет необычный пёс-компаньон Хико.

Страна: Мексика
Студия: Anima Estudios
Продолжительность: 01:26:40
Перевод: Дублированный | Netflix

Качество: WEB-DL 1080p
Видео: MPEG-4 AVC, 1920x1080, 3320 Kbit/s, 23.976 fps
Аудио #01: 48 kHz, E-AC3, 5.1, 640 Kbps | Netflix | RUS |
Аудио #02: 48 kHz, AC3, 5.1, 640 Kbps | Netflix | RUS |
Аудио #03: 48 kHz, E-AC3, 5.1, 640 Kbps | Оригинал | ENG |
Субтитры: Русские (Forced, full), английские

Релиз: Присоединяйся к:


[+] MI
General
Unique ID                   : 25815588622299183086293733731393975301 (0x136BE6C9C01A68F9EE62E709D941B405)
Complete name               : C:VideoXicos.Journey.2021.NF.WEB-DL.1080p.seleZen.mkv
Format                      : Matroska
Format version              : Version 4
File size                   : 2.75 GiB
Duration                    : 1 h 26 min
Overall bit rate mode       : Variable
Overall bit rate            : 4 545 kb/s
Movie name                  : Xicos.Journey.2021 from seleZen
Encoded date                : UTC 2021-02-12 08:54:04
Writing application         : mkvmerge v53.0.0 ('Fool's Gold') 64-bit
Writing library             : libebml v1.4.1 + libmatroska v1.6.2

Video
ID                          : 1
Format                      : AVC
Format/Info                 : Advanced Video Codec
Format profile              : Main@L4
Format settings             : CABAC / 3 Ref Frames
Format settings, CABAC      : Yes
Format settings, Reference  : 3 frames
Codec ID                    : V_MPEG4/ISO/AVC
Duration                    : 1 h 26 min
Bit rate mode               : Variable
Bit rate                    : 2 622 kb/s
Nominal bit rate            : 3 320 kb/s
Maximum bit rate            : 4 980 kb/s
Width                       : 1 920 pixels
Height                      : 1 080 pixels
Display aspect ratio        : 16:9
Frame rate mode             : Constant
Frame rate                  : 23.976 (24000/1001) FPS
Color space                 : YUV
Chroma subsampling          : 4:2:0
Bit depth                   : 8 bits
Scan type                   : Progressive
Bits/(Pixel*Frame)          : 0.053
Stream size                 : 1.59 GiB (58%)
Writing library             : x264 core 148 r2722 1b0121b
Encoding settings           : cabac=1 / ref=3 / deblock=1:0:0 / analyse=0x1:0x111 / me=umh / subme=10 / psy=1 / psy_rd=1.00:0.00 / mixed_ref=1 / me_range=24 / chroma_me=1 / trellis=2 / 8x8dct=0 / cqm=0 / deadzone=21,11 / fast_pskip=1 / chroma_qp_offset=-2 / threads=6 / lookahead_threads=1 / sliced_threads=0 / nr=0 / decimate=1 / interlaced=0 / bluray_compat=0 / stitchable=1 / constrained_intra=0 / bframes=2 / b_pyramid=0 / b_adapt=2 / b_bias=0 / direct=3 / weightb=1 / open_gop=0 / weightp=2 / keyint=250 / keyint_min=23 / scenecut=0 / intra_refresh=0 / rc_lookahead=48 / rc=2pass / mbtree=1 / bitrate=3320 / ratetol=1.0 / qcomp=0.50 / qpmin=6 / qpmax=51 / qpstep=4 / cplxblur=20.0 / qblur=0.5 / vbv_maxrate=4980 / vbv_bufsize=6640 / nal_hrd=vbr / filler=0 / ip_ratio=1.40 / aq=1:1.00
Language                    : English
Default                     : Yes
Forced                      : No

Audio #1
ID                          : 2
Format                      : E-AC-3
Format/Info                 : Enhanced AC-3
Commercial name             : Dolby Digital Plus
Codec ID                    : A_EAC3
Duration                    : 1 h 26 min
Bit rate mode               : Constant
Bit rate                    : 640 kb/s
Channel(s)                  : 6 channels
Channel layout              : L R C LFE Ls Rs
Sampling rate               : 48.0 kHz
Frame rate                  : 31.250 FPS (1536 SPF)
Compression mode            : Lossy
Stream size                 : 397 MiB (14%)
Title                       : Dub
Language                    : Russian
Service kind                : Complete Main
Default                     : Yes
Forced                      : Yes

Audio #2
ID                          : 3
Format                      : AC-3
Format/Info                 : Audio Coding 3
Commercial name             : Dolby Digital
Codec ID                    : A_AC3
Duration                    : 1 h 26 min
Bit rate mode               : Constant
Bit rate                    : 640 kb/s
Channel(s)                  : 6 channels
Channel layout              : L R C LFE Ls Rs
Sampling rate               : 48.0 kHz
Frame rate                  : 31.250 FPS (1536 SPF)
Compression mode            : Lossy
Stream size                 : 397 MiB (14%)
Title                       : Dub
Language                    : Russian
Service kind                : Complete Main
Default                     : No
Forced                      : No

Audio #3
ID                          : 4
Format                      : E-AC-3
Format/Info                 : Enhanced AC-3
Commercial name             : Dolby Digital Plus
Codec ID                    : A_EAC3
Duration                    : 1 h 26 min
Bit rate mode               : Constant
Bit rate                    : 640 kb/s
Channel(s)                  : 6 channels
Channel layout              : L R C LFE Ls Rs
Sampling rate               : 48.0 kHz
Frame rate                  : 31.250 FPS (1536 SPF)
Compression mode            : Lossy
Stream size                 : 397 MiB (14%)
Title                       : English
Language                    : English
Service kind                : Complete Main
Default                     : No
Forced                      : No

Text #1
ID                          : 5
Format                      : UTF-8
Codec ID                    : S_TEXT/UTF8
Codec ID/Info               : UTF-8 Plain Text
Duration                    : 1 h 23 min
Bit rate                    : 4 b/s
Count of elements           : 43
Stream size                 : 2.51 KiB (0%)
Title                       : Russian (Forced)
Language                    : Russian
Default                     : Yes
Forced                      : Yes

Text #2
ID                          : 6
Format                      : UTF-8
Codec ID                    : S_TEXT/UTF8
Codec ID/Info               : UTF-8 Plain Text
Duration                    : 1 h 23 min
Bit rate                    : 74 b/s
Count of elements           : 942
Stream size                 : 45.4 KiB (0%)
Title                       : Russian
Language                    : Russian
Default                     : No
Forced                      : No

Text #3
ID                          : 7
Format                      : UTF-8
Codec ID                    : S_TEXT/UTF8
Codec ID/Info               : UTF-8 Plain Text
Duration                    : 1 h 22 min
Bit rate                    : 3 b/s
Count of elements           : 58
Stream size                 : 2.18 KiB (0%)
Title                       : English (Forced)
Language                    : English
Default                     : No
Forced                      : Yes

Text #4
ID                          : 8
Format                      : UTF-8
Codec ID                    : S_TEXT/UTF8
Codec ID/Info               : UTF-8 Plain Text
Duration                    : 1 h 22 min
Bit rate                    : 45 b/s
Count of elements           : 851
Stream size                 : 27.8 KiB (0%)
Title                       : English
Language                    : English
Default                     : No
Forced                      : No



Скриншоты:
[+] Всего файлов в раздаче - 1:
Xicos.Journey.2021.NF.WEB-DL.1080p.seleZen.mkv2.75 GB

Похожие раздачи по запросу - путь:
2021-02-14 U Путь Хико / Xicos Journey / El Camino de Xico (2020) WEB-DLRip-AVC | Netflix 1.78 GB ↑ 76 ↓ 5
2021-02-12 U Путь Хико / Xicos Journey / El Camino de Xico (2020) WEB-DLRip от MegaPeer | Netflix 1.46 GB ↑ 82 ↓ 52
2017-07-05 U Роман Трахтенберг - Аудиокниги [Путь самца / Гастролёр / Вы хотите стать звездой?] (2007) MP3 1.46 GB ↑ 560 ↓ 71

Отзывы
Зарегистрируйтесь чтобы добавить комментарий.
Загрузите программу
  uTorrent.exe
Обратная связь
Copyleft ©