↑↓torrent.by
Поиск
Логин: Регистрация
Пароль: Восстановить пароль

Конь Юлий и большие скачки (2020) WEB-DLRip-AVC от ExKinoRay

Скачать kon-yuliy-i-bolshie-skachki-2020-web-dlrip-avc-ot-exkinoray.torrent
U Магнитная ссылка Размер: 1.37 GB Раздают: 131 Качают: 52 Добавлен: 2021-02-12 17:16:46
Конь Юлий и большие скачки (2020) WEB-DLRip-AVC от ExKinoRay

Название: Конь Юлий и большие скачки
Год выхода: 2020
Жанр:  Мультфильм, приключения
Режиссер: Дарина Шмидт, Константин Феоктистов
Роли озвучивают: Дмитрий Высоцкий, Сергей Маковецкий, Сергей Бурунов, Олег Куликович, Валерий Соловьев, Дмитрий Быковский-Ромашов, Анатолий Петров, Мария Цветкова-Овсянникова, Лия Медведева, Юлия Зоркина

О фильме:  Дождались: говорящий конь Юлий влюбился! И на этот раз все серьезно – он просит руки, то есть копыта​ королевской кобылы по имени Звезда Востока у султана Рашида.

Но сватать кобылу королевских кровей может только особа царских кровей.​ Юлий обращается к князю Киевскому за помощью, но получает отказ. Но наш жених не намерен отказываться от любви. Он похищает князя и насильно везет его к султану, на сватовство. И у богатырей​ тоже​ есть дело в восточной стороне. Все сойдутся на больших скачках, где победитель получит всё.

Страна: Россия
Студия: Кинокомпания CTB / СТВ, Анимационная студия «Мельница»
Продолжительность: 01:13:41
Перевод: Не требуется

Формат: MKV
Качество: WEB-DLRip-AVC
Видео: MPEG-4 AVC, 720x404 (16:9), 25.000 fps, 2272 Kbps, 0.312 bit/pixel
Аудио: AC3, 48 kHz, 5.1 ch, ~384.00 kbps avg |

Релиз:

Автор релиза:


[+] ОтчетМедиаИнфо

General
Unique ID                                : 250512961709703795709246085679005802908 (0xBC770A9BE711F3EB8CEB59DDE347A19C)
Complete name                            : G:Kon.Yuliy.i.bolshie.skachki.2020.AVC.ExKinoRay.mkv
Format                                   : Matroska
Format version                           : Version 2
File size                                : 1.37 GiB
Duration                                 : 1 h 13 min
Overall bit rate                         : 2 657 kb/s
Movie name                               : Конь Юлий и большие скачки (2020) from ExKinoRay
Encoded date                             : UTC 2021-02-11 23:12:30
Writing application                      : mkvmerge v5.6.0 ('Kenya Kane') built on May 27 2012 16:44:04
Writing library                          : libebml v1.2.3 + libmatroska v1.3.0

Video
ID                                       : 1
Format                                   : AVC
Format/Info                              : Advanced Video Codec
Format profile                           : High@L4.1
Format settings, CABAC                   : Yes
Format settings, ReFrames                : 11 frames
Codec ID                                 : V_MPEG4/ISO/AVC
Duration                                 : 1 h 13 min
Bit rate                                 : 2 272 kb/s
Width                                    : 720 pixels
Height                                   : 404 pixels
Display aspect ratio                     : 16:9
Frame rate mode                          : Constant
Frame rate                               : 25.000 FPS
Color space                              : YUV
Chroma subsampling                       : 4:2:0
Bit depth                                : 8 bits
Scan type                                : Progressive
Bits/(Pixel*Frame)                       : 0.312
Stream size                              : 1.14 GiB (84%)
Title                                    : Enigma
Writing library                          : x264 core 152 r2851 ba24899
Encoding settings                        : cabac=1 / ref=11 / deblock=1:-2:-2 / analyse=0x3:0x113 / me=umh / subme=10 / psy=1 / psy_rd=1.05:0.10 / mixed_ref=1 / me_range=32 / chroma_me=1 / trellis=2 / 8x8dct=1 / cqm=0 / deadzone=21,11 / fast_pskip=0 / chroma_qp_offset=-3 / threads=12 / lookahead_threads=3 / sliced_threads=0 / nr=0 / decimate=0 / interlaced=0 / bluray_compat=0 / constrained_intra=0 / bframes=10 / b_pyramid=2 / b_adapt=2 / b_bias=0 / direct=3 / weightb=1 / open_gop=0 / weightp=2 / keyint=250 / keyint_min=25 / scenecut=40 / intra_refresh=0 / rc=2pass / mbtree=0 / bitrate=2272 / ratetol=1.0 / qcomp=0.60 / qpmin=0 / qpmax=51 / qpstep=4 / cplxblur=20.0 / qblur=0.5 / ip_ratio=1.30 / pb_ratio=1.20 / aq=1:1.00
Default                                  : Yes
Forced                                   : No
Color range                              : Limited
Color primaries                          : BT.709
Transfer characteristics                 : BT.709
Matrix coefficients                      : BT.709

Audio
ID                                       : 2
Format                                   : AC-3
Format/Info                              : Audio Coding 3
Mode extension                           : CM (complete main)
Format settings, Endianness              : Big
Codec ID                                 : A_AC3
Duration                                 : 1 h 13 min
Bit rate mode                            : Constant
Bit rate                                 : 384 kb/s
Channel(s)                               : 6 channels
Channel positions                        : Front: L C R, Side: L R, LFE
Sampling rate                            : 48.0 kHz
Frame rate                               : 31.250 FPS (1536 spf)
Compression mode                         : Lossy
Stream size                              : 202 MiB (14%)
Language                                 : Russian
Default                                  : Yes
Forced                                   : No




Скриншоты:
[+] Всего файлов в раздаче - 1:
Kon.Yuliy.i.bolshie.skachki.2020.AVC.ExKinoRay.mkv1.37 GB

Показать еще раздачи по запросу конь:
2021-02-14 U Конь Юлий и большие скачки (2020) WEB-DLRip-AVC от OlLanDGroup | IVI 744.10 MB ↑ 38 ↓ 8
2021-02-12 U Конь Юлий и большие скачки (2020) WEB-DLRip от Twister & ExKinoRay 1.37 GB ↑ 64 ↓ 23
2021-02-12 U Конь Юлий и большие скачки (2020) WEB-DLRip 720p 1.39 GB ↑ 221 ↓ 66
2021-02-11 U Конь Юлий и большие скачки (2020) WEB-DLRip 745.31 MB ↑ 151 ↓ 26
2021-02-11 U Конь Юлий и большие скачки (2020) WEB-DLRip от ExKinoRay 743.92 MB ↑ 178 ↓ 60
2021-02-11 U Конь Юлий и большие скачки (2020) WEB-DLRip от Generalfilm | КПК 278.98 MB ↑ 62 ↓ 17
2021-02-11 U Конь Юлий и большие скачки (2020) WEB-DLRip-AVC от MegaPeer 1.45 GB ↑ 439 ↓ 104

Отзывы
Зарегистрируйтесь чтобы добавить комментарий.
Загрузите программу
  uTorrent.exe
Обратная связь
Copyleft ©