↑↓torrent.by
Поиск
Логин: Регистрация
Пароль: Восстановить пароль

Книга джунглей / The Jungle Book (1967) WEB-DL 1080p | D, P, A | Open Matte

Скачать kniga-dzhungley-the-jungle-book-1967-web-dl-1080p-d-p-a-open-matte.torrent
U Магнитная ссылка Размер: 3.85 GB Раздают: 32 Качают: 5 Добавлен: 2021-02-13 02:52:17
Книга джунглей / The Jungle Book (1967) WEB-DL 1080p | D, P, A | Open Matte

Название: Книга джунглей
Оригинальное название: The Jungle Book
Год выхода: 1967
Жанр: мультфильм, мюзикл, приключения, семейный
Режиссер: Вольфганг Райтерман
В ролях: Фил Харрис, Себастьян Кабот, Брюс Рейтерман, Джордж Сэндерс, Стерлинг Холлоуэй, Луи Прима, Дж. Пэт О’Мэлли, Верна Фелтон, Клинт Ховард, Чад Стюарт

О фильме:
Выращенный волками человеческий детеныш Маугли по решению стаи должен вернуться к людям, чтобы не попасть в лапы к тигру-людоеду Шер Хану. Вместе с пантерой Багирой Маугли отправляется в путь, навстречу неожиданным знакомствам и опасным приключениям.
Он подружится с беспечным медведем Балу, будет похищен обезьянами, станет пленником коварного удава Каа, и еще много чего случится со смелым мальчиком, который по словам самого Киплинга «любит дергать смерть за усы».

Страна: США
Выпущено: Walt Disney Animation Studios, Walt Disney Productions
Продолжительность: 01:18:37
Перевод: Профессиональный (дублированный), профессиональный (многоголосый закадровый), авторский

Файл
Формат: MKV
Качество: WEB-DL 1080p
Видео: AVC/H.264, 1472х1080, 23.976 fps, ~5086 Kbps
Аудио 1: AC3, 6 ch, 640 kbps - Русский (DUB)
Аудио 2: AC3, 2 ch, 192 kbps - Русский (MVO)
Аудио 3: AC3, 6 ch, 448 kbps - Русский (AVO Михалев)
Аудио 4: AC3, 6 ch, 640 kbps - Английский
Субтитры: русские, английские


[+] MediaInfo
General
Unique ID                   : 254641756264584414778930536882588632061 (0xBF9237E5A9C5B562873F4CEB95C043FD)
Complete name               : D:The Jungle Book (1967) Open Matte WEB-DL 1080p.mkv
Format                      : Matroska
Format version              : Version 4
File size                   : 3.85 GiB
Duration                    : 1 h 18 min
Overall bit rate            : 7 007 kb/s
Encoded date                : UTC 2021-02-11 14:53:00
Writing application         : mkvmerge v8.3.0 ('Over the Horizon') 32bit
Writing library             : libebml v1.3.1 + libmatroska v1.4.2

Video
ID                          : 1
Format                      : AVC
Format/Info                 : Advanced Video Codec
Format profile              : High@L4
Format settings             : CABAC / 3 Ref Frames
Format settings, CABAC      : Yes
Format settings, Reference  : 3 frames
Codec ID                    : V_MPEG4/ISO/AVC
Duration                    : 1 h 18 min
Bit rate                    : 5 086 kb/s
Width                       : 1 472 pixels
Height                      : 1 080 pixels
Display aspect ratio        : 4:3
Frame rate mode             : Constant
Frame rate                  : 23.976 (24000/1001) FPS
Color space                 : YUV
Chroma subsampling          : 4:2:0
Bit depth                   : 8 bits
Scan type                   : Progressive
Bits/(Pixel*Frame)          : 0.133
Stream size                 : 2.79 GiB (73%)
Default                     : Yes
Forced                      : No

Audio #1
ID                          : 2
Format                      : AC-3
Format/Info                 : Audio Coding 3
Commercial name             : Dolby Digital
Codec ID                    : A_AC3
Duration                    : 1 h 18 min
Bit rate mode               : Constant
Bit rate                    : 640 kb/s
Channel(s)                  : 6 channels
Channel layout              : L R C LFE Ls Rs
Sampling rate               : 48.0 kHz
Frame rate                  : 31.250 FPS (1536 SPF)
Compression mode            : Lossy
Stream size                 : 360 MiB (9%)
Title                       : DUB
Language                    : Russian
Service kind                : Complete Main
Default                     : Yes
Forced                      : No

Audio #2
ID                          : 3
Format                      : AC-3
Format/Info                 : Audio Coding 3
Commercial name             : Dolby Digital
Codec ID                    : A_AC3
Duration                    : 1 h 18 min
Bit rate mode               : Constant
Bit rate                    : 192 kb/s
Channel(s)                  : 2 channels
Channel layout              : L R
Sampling rate               : 48.0 kHz
Frame rate                  : 31.250 FPS (1536 SPF)
Compression mode            : Lossy
Stream size                 : 108 MiB (3%)
Title                       : MVO
Language                    : Russian
Service kind                : Complete Main
Default                     : No
Forced                      : No

Audio #3
ID                          : 4
Format                      : AC-3
Format/Info                 : Audio Coding 3
Commercial name             : Dolby Digital
Codec ID                    : A_AC3
Duration                    : 1 h 18 min
Bit rate mode               : Constant
Bit rate                    : 448 kb/s
Channel(s)                  : 6 channels
Channel layout              : L R C LFE Ls Rs
Sampling rate               : 48.0 kHz
Frame rate                  : 31.250 FPS (1536 SPF)
Compression mode            : Lossy
Stream size                 : 252 MiB (6%)
Title                       : AVO Михалев
Language                    : Russian
Service kind                : Complete Main
Default                     : No
Forced                      : No

Audio #4
ID                          : 5
Format                      : AC-3
Format/Info                 : Audio Coding 3
Commercial name             : Dolby Digital
Codec ID                    : A_AC3
Duration                    : 1 h 18 min
Bit rate mode               : Constant
Bit rate                    : 640 kb/s
Channel(s)                  : 6 channels
Channel layout              : L R C LFE Ls Rs
Sampling rate               : 48.0 kHz
Frame rate                  : 31.250 FPS (1536 SPF)
Compression mode            : Lossy
Stream size                 : 360 MiB (9%)
Language                    : English
Service kind                : Complete Main
Default                     : No
Forced                      : No

Text #1
ID                          : 6
Format                      : UTF-8
Codec ID                    : S_TEXT/UTF8
Codec ID/Info               : UTF-8 Plain Text
Duration                    : 1 h 17 min
Bit rate                    : 97 b/s
Count of elements           : 1100
Stream size                 : 55.4 KiB (0%)
Language                    : Russian
Default                     : No
Forced                      : No

Text #2
ID                          : 7
Format                      : UTF-8
Codec ID                    : S_TEXT/UTF8
Codec ID/Info               : UTF-8 Plain Text
Duration                    : 1 h 15 min
Bit rate                    : 58 b/s
Count of elements           : 1082
Stream size                 : 31.9 KiB (0%)
Language                    : English
Default                     : No
Forced                      : No



Скриншоты:
[+] Всего файлов в раздаче - 1:
The Jungle Book (1967) Open Matte WEB-DL 1080p.mkv3.85 GB

Показать еще раздачи по запросу книга:
2021-02-27 U Валерий Медведев - Большая книга огородника (2021) PDF 11.44 MB ↑ 75 ↓ 9
2021-02-22 U Артём Каменистый - Корм. Книга 1 (2021) MP3 582.86 MB ↑ 58 ↓ 15
2021-02-14 U Анна Хрусталева - Можно. Любовное исследование своей сексуальности. Книга для женщин (2020) PDF 10.00 MB ↑ 81 ↓ 9
2020-11-28 U Серия книг - «Fanzon. Наш выбор» [31 книга] (2018-2020) FB2 78.72 MB ↑ 286 ↓ 24
2020-10-19 U Серия книг - «Золотой век английского детектива» [121 книга] (2013-2020) FB2 229.86 MB ↑ 247 ↓ 29
2020-10-01 U Книжная серия - Военные тайны XX века [191 книга] (1999-2019) FB2, PDF, DJVU 857.10 MB ↑ 423 ↓ 80
2020-09-18 U Серия книг - «Моя большая книга» [300 томов] (2018-2020) FB2 3.44 GB ↑ 128 ↓ 97

Отзывы
Зарегистрируйтесь чтобы добавить комментарий.
Загрузите программу
  uTorrent.exe
Обратная связь
Copyleft ©