↑↓torrent.by
Поиск
Логин: Регистрация
Пароль: Восстановить пароль

Цзян Цзыя: Легенда об обожествлении / Jiang Ziya / Legend of Deification (2020) BDRip 1080p | L2

Скачать czyan-czyya-legenda-ob-obozhestvlenii-jiang-ziya-legend-of-deification-2020-bdrip-1080p-l2.torrent
U Магнитная ссылка Размер: 6.53 GB Раздают: 152 Качают: 65 Добавлен: 2021-02-13 14:16:27
Цзян Цзыя: Легенда об обожествлении / Jiang Ziya / Legend of Deification (2020) BDRip 1080p | L2

Название: Цзян Цзыя: Легенда об обожествлении
Оригинальное название: Jiang Ziya / Legend of Deification
Год выхода: 2020
Жанр: Мультфильм, фэнтези, боевик
Режиссер: Чэн Тэн, Ли Вэй, Ли Ся, Ван Синь
В ролях: Цзян Гуантао, Цзи Гуаньлинь, Фэн Шэн, Ян Нин,Шань Синь,Тун Синьчжу,Хао Сянхай,Тэн Синь, Чэнь Сыюй, Янь Ецяо, Цао Юньту, Ли Ланьлин, Е Чжицю, Лю Минъюэ, Шэнь Няньжу, Лю Цинъян

О фильме:
Династия Шан, 1000 лет до н. э. Принявшая обличие наложницы императора коварная демон-лиса о девяти хвостах захватила власть, но после многолетней войны была повержена. Отважный воин Цзян Цзыя взошел по небесной лестнице, чтобы убить лису и обрести бессмертие, но она показала ему девушку, которая умрёт вместе с ней. Он не смог погубить невинную, а все решили, что Цзян попал под чары демона. 10 лет спустя лишённый части сил воин сталкивается с той самой загадочной девушкой. Её зовут Сяо Цзю, она ничего не помнит о своём прошлом и вдобавок сама похожа на демона-лису. Вместе они отправляются в опасное путешествие к горе Юду, где Сяо Цзю надеется вспомнить, кто она такая.

Страна: Китай
Студия: Beijing Enlight Pictures, Horgos Coloroom Pictures
Продолжительность: 01:48:41
Перевод: Любительский двухголосый | AniStar

Файл
Кодек: x.264
Качество: BDRip 1080p
Видео: MPEG-4 AVC, 7126 Kбит/с, 1920x804, 24.000 кадр/с
Аудио #1: Русский (АС3, 2 ch, 192 Кбит/с, 48.0 KHz) Любительский  (двухголосый, закадровый) AniStar
Аудио #2: Английский (АС3, 6 ch, 640 Кбит/с, 48.0 KHz)
Аудио #3: Китайский (АС3, 6 ch, 640 Кбит/с, 48.0 KHz)
Субтитры: английские
► Без Рекламы!
[url=https://youtu.be/0l6-2ZOL3tI" target="_blank">Трейлер |


[+] MediaInfo
Источник: Legend.of.Deification.2020.CHINESE.1080p.BluRay.x264.DTS-MT
General
Unique ID                      : 171840870215786041129317555883456877572 (0x81475906EB1339F9A8547BF168CC5404)
Complete name                  : Legend.of.Deification.2020.BDRip.1080p.mkv
Format                         : Matroska
Format version                 : Version 4
File size                      : 6.53 GiB
Duration                       : 1 h 48 min
Overall bit rate               : 8 601 kb/s
Movie name                     : Legend.of.Deification.2020.CHINESE.1080p.BluRay.x264.DTS-MT
Encoded date                   : UTC 2021-02-12 20:07:16
Writing application            : mkvmerge v7.1.0 ('Good Love') 64bit built on Jul 27 2014 13:06:55
Writing library                : libebml v1.3.0 + libmatroska v1.4.1

Video
ID                             : 1
Format                         : AVC
Format/Info                    : Advanced Video Codec
Format profile                 : High@L4.1
Format settings                : CABAC / 5 Ref Frames
Format settings, CABAC         : Yes
Format settings, Reference fra : 5 frames
Codec ID                       : V_MPEG4/ISO/AVC
Duration                       : 1 h 48 min
Bit rate                       : 7 126 kb/s
Width                          : 1 920 pixels
Height                         : 804 pixels
Display aspect ratio           : 2.40:1
Frame rate mode                : Constant
Frame rate                     : 24.000 FPS
Color space                    : YUV
Chroma subsampling             : 4:2:0
Bit depth                      : 8 bits
Scan type                      : Progressive
Bits/(Pixel*Frame)             : 0.192
Stream size                    : 5.41 GiB (83%)
Writing library                : x264 core 157 r2938 2b00a84 TnP@MTeam Mod
Encoding settings              : cabac=1 / ref=5 / deblock=1:-3:-3 / analyse=0x3:0x133 / me=umh / subme=10 / psy=1 / psy_rd=1.05:0.00 / mixed_ref=1 / me_range=32 / chroma_me=1 / trellis=2 / 8x8dct=1 / cqm=0 / deadzone=21,11 / fast_pskip=0 / chroma_qp_offset=-2 / threads=12 / lookahead_threads=2 / sliced_threads=0 / nr=0 / decimate=0 / interlaced=0 / bluray_compat=0 / constrained_intra=0 / bframes=8 / b_pyramid=2 / b_adapt=2 / b_bias=0 / direct=3 / weightb=1 / open_gop=0 / weightp=2 / keyint=250 / keyint_min=24 / scenecut=40 / intra_refresh=0 / rc_lookahead=250 / rc=crf / mbtree=0 / crf=16.8 / qcomp=0.60 / qpmin=0 / qpmax=69 / qpstep=4 / vbv_maxrate=62500 / vbv_bufsize=78125 / crf_max=0.0 / nal_hrd=none / filler=0 / ip_ratio=1.30 / pb_ratio=1.20 / aq=3:0.80
Language                       : English
Default                        : Yes
Forced                         : No
Color range                    : Limited
Color primaries                : BT.709
Matrix coefficients            : BT.709

Audio #1
ID                             : 2
Format                         : AC-3
Format/Info                    : Audio Coding 3
Commercial name                : Dolby Digital
Codec ID                       : A_AC3
Duration                       : 1 h 48 min
Bit rate mode                  : Constant
Bit rate                       : 192 kb/s
Channel(s)                     : 2 channels
Channel layout                 : L R
Sampling rate                  : 48.0 kHz
Frame rate                     : 31.250 FPS (1536 SPF)
Compression mode               : Lossy
Stream size                    : 149 MiB (2%)
Title                          : AniStar
Language                       : Russian
Service kind                   : Complete Main
Default                        : Yes
Forced                         : No

Audio #2
ID                             : 3
Format                         : AC-3
Format/Info                    : Audio Coding 3
Commercial name                : Dolby Digital
Codec ID                       : A_AC3
Duration                       : 1 h 48 min
Bit rate mode                  : Constant
Bit rate                       : 640 kb/s
Channel(s)                     : 6 channels
Channel layout                 : L R C LFE Ls Rs
Sampling rate                  : 48.0 kHz
Frame rate                     : 31.250 FPS (1536 SPF)
Compression mode               : Lossy
Stream size                    : 498 MiB (7%)
Language                       : English
Service kind                   : Complete Main
Default                        : No
Forced                         : No

Audio #3
ID                             : 4
Format                         : AC-3
Format/Info                    : Audio Coding 3
Commercial name                : Dolby Digital
Codec ID                       : A_AC3
Duration                       : 1 h 48 min
Bit rate mode                  : Constant
Bit rate                       : 640 kb/s
Channel(s)                     : 6 channels
Channel layout                 : L R C LFE Ls Rs
Sampling rate                  : 48.0 kHz
Frame rate                     : 31.250 FPS (1536 SPF)
Compression mode               : Lossy
Stream size                    : 498 MiB (7%)
Language                       : Chinese
Service kind                   : Complete Main
Default                        : No
Forced                         : No

Text #1
ID                             : 5
Format                         : UTF-8
Codec ID                       : S_TEXT/UTF8
Codec ID/Info                  : UTF-8 Plain Text
Duration                       : 1 h 41 min
Bit rate                       : 38 b/s
Count of elements              : 1176
Stream size                    : 28.4 KiB (0%)
Title                          : English-SRT
Language                       : English
Default                        : No
Forced                         : No

Text #2
ID                             : 6
Format                         : UTF-8
Codec ID                       : S_TEXT/UTF8
Codec ID/Info                  : UTF-8 Plain Text
Duration                       : 1 h 41 min
Bit rate                       : 37 b/s
Count of elements              : 1060
Stream size                    : 27.9 KiB (0%)
Title                          : English-For-DUB-SRT
Language                       : English
Default                        : No
Forced                         : No

Text #3
ID                             : 7
Format                         : UTF-8
Codec ID                       : S_TEXT/UTF8
Codec ID/Info                  : UTF-8 Plain Text
Duration                       : 1 h 41 min
Bit rate                       : 47 b/s
Count of elements              : 1525
Stream size                    : 35.4 KiB (0%)
Title                          : English-SDH-SRT
Language                       : English
Default                        : No
Forced                         : No

Text #4
ID                             : 8
Format                         : UTF-8
Codec ID                       : S_TEXT/UTF8
Codec ID/Info                  : UTF-8 Plain Text
Duration                       : 4 min 26 s
Bit rate                       : 3 b/s
Count of elements              : 4
Stream size                    : 133 Bytes (0%)
Title                          : English-FORCED-SRT
Language                       : English
Default                        : No
Forced                         : No

Menu
00:00:00.000                   : en:Chapter 01
00:11:19.708                   : en:Chapter 02
00:28:49.791                   : en:Chapter 03
00:40:43.750                   : en:Chapter 04
00:50:00.375                   : en:Chapter 05
01:00:22.250                   : en:Chapter 06
01:11:30.166                   : en:Chapter 07
01:21:29.583                   : en:Chapter 08
01:30:30.916                   : en:Chapter 09
01:37:54.791                   : en:Chapter 10



Скриншоты:
[+] Всего файлов в раздаче - 1:
Legend.of.Deification.2020.BDRip.1080p.mkv6.53 GB

Отзывы
Зарегистрируйтесь чтобы добавить комментарий.
Загрузите программу
  uTorrent.exe
Обратная связь
Copyleft ©