↑↓torrent.by
Поиск
Логин: Регистрация
Пароль: Восстановить пароль

Семейка Крудс: Новоселье / The Croods: A New Age (2020) BDRip 1080p от ExKinoRay | HDRezka Studio

Скачать semeyka-kruds-novosele-the-croods-a-new-age-2020-bdrip-1080p-ot-exkinoray-hdrezka-studio.torrent
U Магнитная ссылка Размер: 6.74 GB Раздают: 132 Качают: 94 Добавлен: 2021-02-13 14:16:34
Семейка Крудс: Новоселье / The Croods: A New Age (2020) BDRip 1080p от ExKinoRay | HDRezka Studio

Название: Семейка Крудс: Новоселье
Оригинальное название: The Croods: A New Age
Год выхода: 2020
Жанр:  Мультфильм, фэнтези, комедия, приключения, семейный
Режиссер: Джоэль Кроуфорд
Роли озвучивают: Николас Кейдж, Эмма Стоун, Райан Рейнольдс, Кэтрин Кинер, Клорис Личмен, Кларк Дьюк, Лесли Манн, Питер Динклэйдж, Келли Мари Трэн, Кайли Кроуфорд

О фильме:
Такие харизматичные герои как члены клана Крудс просто не в силах усидеть на месте. Они смело идут навстречу самым головокружительным приключениям и готовы ответить непредсказуемостью и находчивостью на любой вызов судьбы.

Страна: США
Студия: DreamWorks Animation
Продолжительность: 01:35:14
Перевод: Профессиональный (многоголосый, закадровый) | HDRezka Studio

Формат: MKV
Качество: BDRip 1080p
Видео: MPEG-4 AVC, 9236 Kbps, 1920x814 (2.35:1), 23.976 кадр/с
Аудио 1: 48 kHz, AC3, 5.1, 448 Kbps | RUS |
Аудио 2: 48 kHz, AC3, 5.1, 448 Kbps | ENG |
Субтитры: Русские (форс., полные), английские (полные)

Релиз:

Автор релиза:


[+] ОтчетМедиаИнфо


General
Unique ID                   : 246912058315438729068692221574042317403 (0xB9C1885D52BD7F9B8FF9219F7CD7725B)
Complete name               : D:The.Croods.A.New.Age.2020.BDRip.1080p.ExKinoRay.mkv
Format                      : Matroska
Format version              : Version 4
File size                   : 6.74 GiB
Duration                    : 1 h 35 min
Overall bit rate            : 10.1 Mb/s
Movie name                  : The Croods A New Age 2020 from ExKinoRay
Encoded date                : UTC 2021-02-13 04:08:57
Writing application         : mkvmerge v7.3.0 ('Nouages') 64bit built on Oct 22 2014 18:53:34
Writing library             : libebml v1.3.0 + libmatroska v1.4.1

Video
ID                          : 1
Format                      : AVC
Format/Info                 : Advanced Video Codec
Format profile              : High@L4.1
Format settings             : CABAC / 5 Ref Frames
Format settings, CABAC      : Yes
Format settings, Reference  : 5 frames
Codec ID                    : V_MPEG4/ISO/AVC
Duration                    : 1 h 35 min
Bit rate                    : 9 236 kb/s
Width                       : 1 920 pixels
Height                      : 814 pixels
Display aspect ratio        : 2.35:1
Frame rate mode             : Constant
Frame rate                  : 23.976 (24000/1001) FPS
Color space                 : YUV
Chroma subsampling          : 4:2:0
Bit depth                   : 8 bits
Scan type                   : Progressive
Bits/(Pixel*Frame)          : 0.246
Stream size                 : 6.14 GiB (91%)
Title                       : MTeam
Writing library             : x264 core 157 r2938 2b00a84 TnP@MTeam Mod
Encoding settings           : cabac=1 / ref=5 / deblock=1:-3:-3 / analyse=0x3:0x133 / me=umh / subme=10 / psy=1 / psy_rd=1.05:0.00 / mixed_ref=1 / me_range=32 / chroma_me=1 / trellis=2 / 8x8dct=1 / cqm=0 / deadzone=21,11 / fast_pskip=0 / chroma_qp_offset=-2 / threads=12 / lookahead_threads=2 / sliced_threads=0 / nr=0 / decimate=0 / interlaced=0 / bluray_compat=0 / constrained_intra=0 / bframes=8 / b_pyramid=2 / b_adapt=2 / b_bias=0 / direct=3 / weightb=1 / open_gop=0 / weightp=2 / keyint=250 / keyint_min=24 / scenecut=40 / intra_refresh=0 / rc_lookahead=250 / rc=crf / mbtree=0 / crf=16.8 / qcomp=0.60 / qpmin=0 / qpmax=69 / qpstep=4 / vbv_maxrate=62500 / vbv_bufsize=78125 / crf_max=0.0 / nal_hrd=none / filler=0 / ip_ratio=1.30 / pb_ratio=1.20 / aq=3:0.80
Language                    : English
Default                     : Yes
Forced                      : No
Color range                 : Limited
Color primaries             : BT.709
Matrix coefficients         : BT.709

Audio #1
ID                          : 2
Format                      : AC-3
Format/Info                 : Audio Coding 3
Commercial name             : Dolby Digital
Codec ID                    : A_AC3
Duration                    : 1 h 35 min
Bit rate mode               : Constant
Bit rate                    : 448 kb/s
Channel(s)                  : 6 channels
Channel layout              : L R C LFE Ls Rs
Sampling rate               : 48.0 kHz
Frame rate                  : 31.250 FPS (1536 SPF)
Compression mode            : Lossy
Stream size                 : 305 MiB (4%)
Title                       : HDRezka Studio
Language                    : Russian
Service kind                : Complete Main
Default                     : Yes
Forced                      : No

Audio #2
ID                          : 3
Format                      : AC-3
Format/Info                 : Audio Coding 3
Commercial name             : Dolby Digital
Codec ID                    : A_AC3
Duration                    : 1 h 35 min
Bit rate mode               : Constant
Bit rate                    : 448 kb/s
Channel(s)                  : 6 channels
Channel layout              : L R C LFE Ls Rs
Sampling rate               : 48.0 kHz
Frame rate                  : 31.250 FPS (1536 SPF)
Compression mode            : Lossy
Stream size                 : 305 MiB (4%)
Language                    : English
Service kind                : Complete Main
Default                     : No
Forced                      : No

Text #1
ID                          : 4
Format                      : UTF-8
Codec ID                    : S_TEXT/UTF8
Codec ID/Info               : UTF-8 Plain Text
Duration                    : 14 min 34 s
Bit rate                    : 4 b/s
Count of elements           : 15
Stream size                 : 500 Bytes (0%)
Title                       : Forced
Language                    : Russian
Default                     : Yes
Forced                      : No

Text #2
ID                          : 5
Format                      : UTF-8
Codec ID                    : S_TEXT/UTF8
Codec ID/Info               : UTF-8 Plain Text
Duration                    : 1 h 26 min
Bit rate                    : 114 b/s
Count of elements           : 1692
Stream size                 : 72.4 KiB (0%)
Title                       : Full srt
Language                    : Russian
Default                     : No
Forced                      : No

Text #3
ID                          : 6
Format                      : UTF-8
Codec ID                    : S_TEXT/UTF8
Codec ID/Info               : UTF-8 Plain Text
Duration                    : 1 h 34 min
Bit rate                    : 73 b/s
Count of elements           : 1718
Stream size                 : 50.8 KiB (0%)
Language                    : English
Default                     : No
Forced                      : No

Menu
00:00:00.000                : en:Chapter 01
00:06:36.563                : en:Chapter 02
00:11:17.760                : en:Chapter 03
00:18:01.289                : en:Chapter 04
00:21:05.389                : en:Chapter 05
00:25:45.085                : en:Chapter 06
00:29:01.990                : en:Chapter 07
00:34:01.706                : en:Chapter 08
00:37:10.603                : en:Chapter 09
00:43:43.037                : en:Chapter 10
00:48:33.786                : en:Chapter 11
00:52:16.675                : en:Chapter 12
00:55:48.095                : en:Chapter 13
00:59:50.128                : en:Chapter 14
01:05:28.758                : en:Chapter 15
01:09:06.476                : en:Chapter 16
01:15:03.499                : en:Chapter 17
01:21:30.719                : en:Chapter 18
01:25:12.691                : en:Chapter 19
01:27:39.129                : en:Chapter 20




Скриншоты:
[+] Всего файлов в раздаче - 1:
The.Croods.A.New.Age.2020.BDRip.1080p.ExKinoRay.mkv6.74 GB

Показать еще раздачи по запросу семейка:
2021-02-21 U Семейка Крудс: Новоселье / The Croods: A New Age (2020) BDRip от Twister & ExKinoRay | HDRezka Studio 1.46 GB ↑ 83 ↓ 19
2021-02-17 U Семейка Крудс: Новоселье / The Croods: A New Age (2020) HDRip-AVC | HDRezka Studio 1.93 GB ↑ 47 ↓ 8
2021-02-13 U Семейка Крудс: Новоселье / The Croods: A New Age (2020) BDRip 720p от ExKinoRay | HDRezka Studio 3.21 GB ↑ 130 ↓ 57
2021-02-13 U Семейка Крудс: Новоселье / The Croods: A New Age (2020) BDRip от MegaPeer | HDRezka Studio 1.46 GB ↑ 4566 ↓ 137
2021-01-05 U Семейка Крудс: Новоселье / The Croods: A New Age (2020) WEB-DLRip-AVC | HDRezka Studio 743.88 MB ↑ 87 ↓ 23
2021-01-05 U Семейка Крудс: Новоселье / The Croods: A New Age (2020) WEB-DL-HEVC 2160p | 4K | HDR | HDRezka Studio 10.75 GB ↑ 130 ↓ 54
2021-01-04 U Семейка Крудс: Новоселье / Сімейка Крудсів: Нова Ера / The Croods: A New Age (2020) WEB-DL-HEVC 2160p | 4K | HDR | Line | UKR 10.46 GB ↑ 80 ↓ 30

Отзывы
Зарегистрируйтесь чтобы добавить комментарий.
Загрузите программу
  uTorrent.exe
Обратная связь
Copyleft ©