↑↓torrent.by
Поиск
Логин: Регистрация
Пароль: Восстановить пароль

Конь Юлий и большие скачки (2020) WEB-DLRip-AVC от OlLanDGroup | IVI

Скачать kon-yuliy-i-bolshie-skachki-2020-web-dlrip-avc-ot-ollandgroup-ivi.torrent
U Магнитная ссылка Размер: 744.10 MB Раздают: 39 Качают: 8 Добавлен: 2021-02-14 06:39:21
Конь Юлий и большие скачки (2020) WEB-DLRip-AVC от OlLanDGroup | IVI

Информация
Название: Конь Юлий и большие скачки
Год выхода: 2020
Жанр: Мультфильм, приключения

Режиссер: Дарина Шмидт, Константин Феоктистов
Роли озвучивают: Дмитрий Высоцкий, Сергей Маковецкий, Сергей Бурунов, Олег Куликович, Валерий Соловьев, Дмитрий Быковский-Ромашов, Анатолий Петров, Мария Цветкова-Овсянникова, Лия Медведева, Юлия Зоркина

Описание:  Дождались: говорящий конь Юлий влюбился! И на этот раз все серьезно – он просит руки, то есть копыта​ королевской кобылы по имени Звезда Востока у султана Рашида.

Но сватать кобылу королевских кровей может только особа царских кровей.​ Юлий обращается к князю Киевскому за помощью, но получает отказ. Но наш жених не намерен отказываться от любви. Он похищает князя и насильно везет его к султану, на сватовство. И у богатырей​ тоже​ есть дело в восточной стороне. Все сойдутся на больших скачках, где победитель получит всё.

Страна: Россия
Студия: Кинокомпания CTB / СТВ, Анимационная студия «Мельница»
Продолжительность: 01:13:32
Перевод: Не требуется | IVI

Файл
Формат: MKV
Качество: WEB-DLRip-AVC
Видео: 720x406 (16:9), 25 fps, x264 ~1342 kbps avg, 0.184 bit/pixel
Звук: 48 kHz, HE-AAC, 2 ch, ~72 kbps avg
Субтитры: Отсутствуют

Релиз:


[+] MediaInfo:
Format                         : Matroska
Format version                 : Version 4
File size                      : 744 MiB
Duration                       : 1 h 13 min
Overall bit rate               : 1 415 kb/s
Movie name                     : Конь Юлий и большие скачки (2020) WEB-DLRip-AVC от OlLanDGroup#Skandar
Encoded date                   : UTC 2021-02-13 00:58:44
Writing application            : mkvmerge v31.0.0 ('Dolores In A Shoestand') 64-bit
Writing library                : libebml v1.3.6 + libmatroska v1.4.9

Video
ID                             : 1
Format                         : AVC
Format/Info                    : Advanced Video Codec
Format profile                 : High@L4.1
Format settings                : CABAC / 10 Ref Frames
Format settings, CABAC         : Yes
Format settings, ReFrames      : 10 frames
Codec ID                       : V_MPEG4/ISO/AVC
Duration                       : 1 h 13 min
Bit rate                       : 1 342 kb/s
Width                          : 720 pixels
Height                         : 406 pixels
Display aspect ratio           : 16:9
Frame rate mode                : Constant
Frame rate                     : 25.000 FPS
Color space                    : YUV
Chroma subsampling             : 4:2:0
Bit depth                      : 8 bits
Scan type                      : Progressive
Bits/(Pixel*Frame)             : 0.184
Stream size                    : 705 MiB (95%)
Title                          : Конь Юлий и большие скачки (2020) WEB-DLRip-AVC от OlLanDGroup#Skandar
Writing library                : x264 core 146 r2538 121396c
Encoding settings              : cabac=1 / ref=10 / deblock=1:-3:-3 / analyse=0x3:0x133 / me=umh / subme=11 / psy=1 / psy_rd=0.95:0.05 / mixed_ref=1 / me_range=32 / chroma_me=1 / trellis=2 / 8x8dct=1 / cqm=0 / deadzone=21,11 / fast_pskip=0 / chroma_qp_offset=-3 / threads=6 / lookahead_threads=1 / sliced_threads=0 / nr=0 / decimate=0 / interlaced=0 / bluray_compat=0 / constrained_intra=0 / bframes=10 / b_pyramid=2 / b_adapt=2 / b_bias=0 / direct=3 / weightb=1 / open_gop=0 / weightp=2 / keyint=240 / keyint_min=24 / scenecut=40 / intra_refresh=0 / rc_lookahead=40 / rc=2pass / mbtree=1 / bitrate=1342 / ratetol=1.0 / qcomp=0.60 / qpmin=0 / qpmax=69 / qpstep=4 / cplxblur=20.0 / qblur=0.5 / vbv_maxrate=50000 / vbv_bufsize=62500 / nal_hrd=none / filler=0 / ip_ratio=1.40 / aq=1:1.00
Language                       : Russian
Default                        : Yes
Forced                         : No

Audio
ID                             : 2
Format                         : AAC LC SBR
Format/Info                    : Advanced Audio Codec Low Complexity with Spectral Band Replication
Commercial name                : HE-AAC
Format settings                : Explicit
Codec ID                       : A_AAC-2
Duration                       : 1 h 13 min
Bit rate                       : 72.0 kb/s
Channel(s)                     : 2 channels
Channel layout                 : L R
Sampling rate                  : 48.0 kHz
Frame rate                     : 23.438 FPS (2048 SPF)
Compression mode               : Lossy
Delay relative to video        : 31 ms
Stream size                    : 37.9 MiB (5%)
Title                          : Original
Language                       : Russian
Default                        : Yes
Forced                         : No



Скриншоты:
[+] Всего файлов в раздаче - 1:
Horse.Julius.and.Big.Horse.Racing.2020.WEB-DLRip(AVC).745Mb.OlLanDGroup.mkv744.10 MB

Показать еще раздачи по запросу конь:
2021-02-12 U Конь Юлий и большие скачки (2020) WEB-DLRip-AVC от ExKinoRay 1.37 GB ↑ 134 ↓ 52
2021-02-12 U Конь Юлий и большие скачки (2020) WEB-DLRip от Twister & ExKinoRay 1.37 GB ↑ 68 ↓ 23
2021-02-12 U Конь Юлий и большие скачки (2020) WEB-DLRip 720p 1.39 GB ↑ 224 ↓ 66
2021-02-11 U Конь Юлий и большие скачки (2020) WEB-DLRip 745.31 MB ↑ 156 ↓ 26
2021-02-11 U Конь Юлий и большие скачки (2020) WEB-DLRip от ExKinoRay 743.92 MB ↑ 182 ↓ 60
2021-02-11 U Конь Юлий и большие скачки (2020) WEB-DLRip от Generalfilm | КПК 278.98 MB ↑ 62 ↓ 17
2021-02-11 U Конь Юлий и большие скачки (2020) WEB-DLRip-AVC от MegaPeer 1.45 GB ↑ 443 ↓ 104

Отзывы
Зарегистрируйтесь чтобы добавить комментарий.
Загрузите программу
  uTorrent.exe
Обратная связь
Copyleft ©