↑↓torrent.by
Поиск
Логин: Регистрация
Пароль: Восстановить пароль

Ватикан - вечный город наместников божьих / The Untold Story of the Vatican (2020) HDTV 1080i | P1

Скачать vatikan-vechnyy-gorod-namestnikov-bozhih-the-untold-story-of-vatican-2020-hdtv-1080i-p1.torrent
U Магнитная ссылка Размер: 2.68 GB Раздают: 49 Качают: 36 Добавлен: 2021-02-14 12:26:38
Ватикан - вечный город наместников божьих / The Untold Story of the Vatican (2020) HDTV  1080i | P1

Название: Ватикан - вечный город наместников божьих
Оригинальное название: The Untold Story of the Vatican
Год выхода: 2020
Жанр: Документальнй, история, архитектура, живопись
Режиссер: Марк Ямпольски, Мари Тири

О фильме:
Ватикан. Он начался с одной-единственной могилы, но за 2 тысячи лет превратился в верховный престол христианского мира и один из самых посещаемых музеев, хранящий бесценную коллекцию предметов искусства, рукописей и других экспонатов. С помощью анимации и 3d- графики, мы покажем, как церковь, дворец, а также окружающие их здания и сады расширялись по воле пап.

Страна: Франция
Студия: ARTE France, Gedeon Programmes, NHK
Продолжительность: 00:51:59
Перевод: Профессиональный (одноголосый закадровый)

Файл
Кодек: AVC/H.264
Качество: HDTV  1080i
Видео: 1920x1080 (16:9), AVC (H.264), High@L4, 6726 kbps, 25fps, 0.130 bit/pixel
Звук:
Русский 48 kHz, MPEG Layer 2, 2 ch, ~160.00 kbps avg
Английский 48 kHz, MPEG Layer 2, 2 ch, ~128.00 kbps avg

Семпл

Релиз от: kyba
[+] MediaInfo
Complete name               : F:НаладкиВатикан_вечный город.ts
Format                      : MPEG-TS
File size                   : 2.68 GiB
Duration                    : 51 min 59 s
Overall bit rate mode       : Variable
Overall bit rate            : 7 381 kb/s

Video
ID                          : 305 (0x131)
Menu ID                     : 17105 (0x42D1)
Format                      : AVC
Format/Info                 : Advanced Video Codec
Format profile              : High@L4
Format settings             : CABAC / 4 Ref Frames
Format settings, CABAC      : Yes
Format settings, RefFrames  : 4 frames
Codec ID                    : 27
Duration                    : 51 min 59 s
Bit rate                    : 6 726 kb/s
Width                       : 1 920 pixels
Height                      : 1 080 pixels
Display aspect ratio        : 16:9
Frame rate                  : 25.000 FPS
Standard                    : Component
Color space                 : YUV
Chroma subsampling          : 4:2:0
Bit depth                   : 8 bits
Scan type                   : Interlaced
Scan type, store method     : Separated fields
Scan order                  : Top Field First
Bits/(Pixel*Frame)          : 0.130
Stream size                 : 2.44 GiB (91%)
Color range                 : Limited
Color primaries             : BT.709
Transfer characteristics    : BT.709
Matrix coefficients         : BT.709

Audio #1
ID                          : 405 (0x195)
Menu ID                     : 17105 (0x42D1)
Format                      : MPEG Audio
Format version              : Version 1
Format profile              : Layer 2
Codec ID                    : 3
Duration                    : 51 min 59 s
Bit rate mode               : Constant
Bit rate                    : 160 kb/s
Channel(s)                  : 2 channels
Sampling rate               : 48.0 kHz
Compression mode            : Lossy
Stream size                 : 59.5 MiB (2%)
Language                    : Russian

Audio #2
ID                          : 425 (0x1A9)
Menu ID                     : 17105 (0x42D1)
Format                      : MPEG Audio
Format version              : Version 1
Format profile              : Layer 2
Codec ID                    : 3
Duration                    : 51 min 59 s
Bit rate mode               : Constant
Bit rate                    : 128 kb/s
Channel(s)                  : 2 channels
Sampling rate               : 48.0 kHz
Compression mode            : Lossy
Stream size                 : 47.6 MiB (2%)
Language                    : English



Скриншоты:
[+] Всего файлов в раздаче - 1:
Ватикан_вечный город.ts2.68 GB

Отзывы
Зарегистрируйтесь чтобы добавить комментарий.
Загрузите программу
  uTorrent.exe
Обратная связь
Copyleft ©